<?xml version="1.0" standalone="no"?>
<!DOCTYPE svg PUBLIC "-//W3C//DTD SVG 1.1//EN" "http://www.w3.org/Graphics/SVG/1.1/DTD/svg11.dtd" >
<svg xmlns="http://www.w3.org/2000/svg" xmlns:xlink="http://www.w3.org/1999/xlink" version="1.1">
<metadata>
Created by FontForge 20160407 at Fri Oct 21 11:08:14 2016
 By Jimmy Warting
Copyright Hans Reichel, 1996. Published by FontShop International FontFont release 17
</metadata>
<defs>
<font id="Dax-Regular" horiz-adv-x="528" >
  <font-face 
    font-family="Dax-Regular"
    font-weight="5"
    font-stretch="normal"
    units-per-em="1000"
    panose-1="0 0 0 0 0 0 0 0 0 0"
    ascent="800"
    descent="-200"
    x-height="539"
    cap-height="688"
    bbox="-112 -227 1127 899"
    underline-thickness="50"
    underline-position="-125"
    unicode-range="U+0020-F002"
  />
<missing-glyph horiz-adv-x="785" 
d="M49 0v785h687v-785h-687zM687 49v687h-589v-687h589z" />
    <glyph glyph-name=".notdef" horiz-adv-x="785" 
d="M49 0v785h687v-785h-687zM687 49v687h-589v-687h589z" />
    <glyph glyph-name=".null" horiz-adv-x="0" 
 />
    <glyph glyph-name="nonmarkingreturn" horiz-adv-x="276" 
 />
    <glyph glyph-name="space" unicode=" " horiz-adv-x="276" 
 />
    <glyph glyph-name="exclam" unicode="!" horiz-adv-x="290" 
d="M189 226h-66l-19 462h104zM156 -5q-23 0 -40 17t-17 41q0 23 17 40t40 17q24 0 41 -17t17 -40q0 -24 -17 -41t-41 -17z" />
    <glyph glyph-name="quotedbl" unicode="&#x22;" horiz-adv-x="384" 
d="M295 426h-46l-20 250q17 21 43 21q28 0 43 -21zM134 426h-45l-20 250q15 21 43 21q27 0 42 -21z" />
    <glyph glyph-name="numbersign" unicode="#" 
d="M388 431l-29 -156h105v-46h-113l-39 -229h-52l40 229h-117l-42 -229h-51l41 229h-103v46h111l28 156h-103v45h111l37 212h52l-37 -212h117l37 212h52l-37 -212h104v-45h-112zM218 431l-28 -156h117l29 156h-118z" />
    <glyph glyph-name="dollar" unicode="$" 
d="M266 -6l9 -122h-58l9 120q-51 0 -86 9.5t-62 27.5l23 61q24 -15 52.5 -24t66.5 -9q59 0 95 36t36 96q0 47 -28 78t-98.5 58t-105.5 73.5t-35 106.5q0 74 45.5 127.5t122.5 62.5l-9 115h56l-9 -114q38 0 69.5 -10t55.5 -26l-21 -53q-22 14 -48 22t-60 8q-54 0 -85 -33
t-31 -89q0 -51 29.5 -78.5t101.5 -56t106 -77t34 -109.5q0 -80 -48 -134.5t-127 -65.5z" />
    <glyph glyph-name="percent" unicode="%" horiz-adv-x="854" 
d="M650 -11q-76 0 -105 68.5t-29 167.5t29 166.5t105 67.5q75 0 105 -68t30 -166q0 -100 -29.5 -168t-105.5 -68zM332 -8l-46 14l234 689l46 -13zM204 229q-77 0 -106 67.5t-29 167.5q0 99 29 167t106 68q75 0 104.5 -68.5t29.5 -166.5q0 -99 -29 -167t-105 -68zM650 420
q-45 0 -59.5 -56t-14.5 -138q0 -83 14 -137t60 -54q45 0 60 54.5t15 136.5q0 109 -19.5 151.5t-55.5 42.5zM204 660q-46 0 -60.5 -55.5t-14.5 -139.5q0 -85 14 -138t61 -53q45 0 59.5 55t14.5 136q0 110 -19.5 152.5t-54.5 42.5z" />
    <glyph glyph-name="ampersand" unicode="&#x26;" horiz-adv-x="619" 
d="M491 410v-381q-27 -18 -74.5 -28.5t-109.5 -10.5q-117 0 -185.5 52.5t-68.5 144.5q0 74 48 126t131 77q-65 19 -100 58t-35 95q0 68 50.5 111.5t136.5 43.5q41 0 79 -10.5t62 -25.5l-25 -51q-19 11 -45.5 19t-53.5 8q-59 0 -87.5 -26.5t-28.5 -73.5q0 -50 37 -80t94 -30
q61 0 129 22t132 56l25 -56q-21 -10 -54 -22t-57 -18zM405 391q-140 -33 -198.5 -75.5t-58.5 -123.5q0 -67 41.5 -105.5t121.5 -38.5q63 0 94 15v328z" />
    <glyph glyph-name="quotesingle" unicode="'" horiz-adv-x="224" 
d="M134 426h-45l-20 250q15 21 43 21t43 -21z" />
    <glyph glyph-name="parenleft" unicode="(" horiz-adv-x="363" 
d="M286 -226q-112 138 -165 261.5t-53 250.5q0 128 51.5 249.5t166.5 261.5l43 -26q-78 -109 -122 -232.5t-44 -252.5q0 -132 43 -253t123 -233z" />
    <glyph glyph-name="parenright" unicode=")" horiz-adv-x="363" 
d="M77 -226l-43 26q78 111 122 233.5t44 252.5q0 132 -43 252.5t-123 232.5l43 26q112 -137 165 -261t53 -250q0 -127 -52 -249.5t-166 -262.5z" />
    <glyph glyph-name="asterisk" unicode="*" horiz-adv-x="422" 
d="M328 632q-18 0 -30 12t-12 30t12 30t30 12t30 -12t12 -30t-12 -30t-30 -12zM211 716q-18 0 -30 12t-12 30t12.5 30.5t29.5 12.5q18 0 30 -12t12 -31q0 -18 -12 -30t-30 -12zM211 600q-15 0 -25.5 10.5t-10.5 25.5q0 16 10.5 26.5t25.5 10.5t25.5 -10.5t10.5 -26.5
q0 -15 -10.5 -25.5t-25.5 -10.5zM288 497q-18 0 -30 12t-12 30t12 30t30 12t30 -12t12 -30t-12 -30t-30 -12zM94 632q-18 0 -30 12t-12 30t12.5 30.5t29.5 12.5q18 0 30 -12t12 -31q0 -18 -12 -30t-30 -12zM133 497q-18 0 -30 12t-12 30t12.5 30.5t29.5 12.5q18 0 30 -12
t12 -31q0 -18 -12 -30t-30 -12z" />
    <glyph glyph-name="plus" unicode="+" 
d="M294 304v-175h-61v175h-161v60h161v175h61v-175h162v-60h-162z" />
    <glyph glyph-name="comma" unicode="," horiz-adv-x="262" 
d="M64 -169h-52l85 247q10 12 24 18.5t35 6.5q19 0 27.5 -6.5t10.5 -18.5z" />
    <glyph glyph-name="hyphen" unicode="-" horiz-adv-x="344" 
d="M59 302v70h226v-70h-226z" />
    <glyph glyph-name="period" unicode="." horiz-adv-x="250" 
d="M125 -4q-24 0 -41 17t-17 41q0 23 17 40t41 17t40.5 -16.5t16.5 -40.5t-16 -41t-41 -17z" />
    <glyph glyph-name="slash" unicode="/" horiz-adv-x="563" 
d="M73 -227l-57 28l474 995l57 -28z" />
    <glyph glyph-name="zero" unicode="0" 
d="M264 -10q-113 0 -161 106t-48 248q0 143 47.5 248.5t161.5 105.5q113 0 161 -106t48 -248q0 -143 -47.5 -248.5t-161.5 -105.5zM264 644q-55 0 -89.5 -69.5t-34.5 -229.5q0 -161 33.5 -228t90.5 -67q56 0 90 67.5t34 227.5q0 163 -33.5 231t-90.5 68z" />
    <glyph glyph-name="one" unicode="1" 
d="M271 0v578q-28 -18 -77.5 -31.5t-98.5 -17.5l-10 53q85 11 138 40t77 66h61v-688h-90z" />
    <glyph glyph-name="two" unicode="2" 
d="M40 0l243 345q39 55 52 91t13 72q0 124 -142 124q-40 0 -68 -7.5t-55 -20.5l-23 57q36 19 75 28t98 9q96 0 152.5 -50.5t56.5 -131.5q0 -39 -20.5 -86.5t-66.5 -108.5l-184 -248h279v-73h-410z" />
    <glyph glyph-name="three" unicode="3" 
d="M220 -10q-62 0 -102 8.5t-73 27.5l25 60q22 -13 57 -21.5t77 -8.5q70 0 110.5 37.5t40.5 105.5q0 86 -59.5 116t-137.5 30v50q77 0 125.5 38.5t48.5 98.5q0 53 -33 77.5t-85 24.5q-36 0 -71.5 -7.5t-57.5 -19.5l-23 55q28 16 69 26t96 10q84 0 139 -41.5t55 -114.5
q0 -61 -41 -100.5t-87 -55.5q66 -20 111.5 -63.5t45.5 -123.5q0 -93 -65 -151t-165 -58z" />
    <glyph glyph-name="four" unicode="4" 
d="M417 157v-157h-81v157h-281v57l278 474h84v-479h56v-52h-56zM285 502l-169 -293h220v289l2 100q-5 -10 -16.5 -31.5t-36.5 -64.5z" />
    <glyph glyph-name="five" unicode="5" 
d="M227 -10q-108 0 -172 36l23 60q23 -12 59.5 -21.5t76.5 -9.5q59 0 104.5 38t45.5 105q0 72 -44 114t-142 42q-36 0 -89 -8l29 342h321v-73h-258l-16 -211q30 3 57 3q117 0 176.5 -56.5t59.5 -151.5q0 -87 -65 -148t-166 -61z" />
    <glyph glyph-name="six" unicode="6" 
d="M268 -10q-104 0 -157 69.5t-53 190.5q0 141 59.5 236t136 144t138.5 64l23 -59q-81 -27 -149 -82t-106 -160q22 8 45.5 13t49.5 5q95 0 157 -53.5t62 -156.5q0 -89 -53.5 -150t-152.5 -61zM240 362q-29 0 -52 -5.5t-39 -12.5q-5 -25 -7 -47.5t-2 -48.5q0 -93 31.5 -145.5
t98.5 -52.5q60 0 90 45t30 110q0 78 -37 117.5t-113 39.5z" />
    <glyph glyph-name="seven" unicode="7" 
d="M398 473q-58 -136 -106.5 -268t-67.5 -205h-110l269 615h-319v73h426z" />
    <glyph glyph-name="eight" unicode="8" 
d="M264 -10q-88 0 -148.5 46t-60.5 126q0 60 34 104.5t117 92.5q-71 41 -100 80.5t-29 94.5q0 71 54.5 117.5t132.5 46.5q79 0 133 -45.5t54 -117.5q0 -54 -29 -93t-100 -80q82 -49 116.5 -94.5t34.5 -104.5q0 -77 -58.5 -125t-150.5 -48zM265 645q-49 0 -80.5 -30.5
t-31.5 -78.5q0 -46 23.5 -75t89.5 -69q63 35 87.5 67t24.5 76q0 48 -31 79t-82 31zM262 329q-77 -44 -102.5 -79t-25.5 -85q0 -52 37.5 -84.5t91.5 -32.5q56 0 92 32t36 83t-25.5 86t-103.5 80z" />
    <glyph glyph-name="nine" unicode="9" 
d="M136 -10l-23 58q107 36 166.5 99t88.5 144q-22 -8 -45.5 -13t-49.5 -5q-96 0 -157.5 53t-61.5 156q0 89 54.5 150.5t152.5 61.5q103 0 156 -69.5t53 -190.5q0 -141 -59.5 -236t-136 -144t-138.5 -64zM258 637q-61 0 -91 -45t-30 -111q0 -157 150 -157q28 0 51.5 5.5
t40.5 12.5q4 19 6 44.5t2 51.5q0 93 -31.5 146t-97.5 53z" />
    <glyph glyph-name="colon" unicode=":" horiz-adv-x="250" 
d="M125 304q-24 0 -41 16t-17 41q0 24 17 41t41 17q23 0 40 -17t17 -41t-16.5 -40.5t-40.5 -16.5zM125 -4q-24 0 -41 17t-17 41q0 23 17 40t41 17t40.5 -16.5t16.5 -40.5t-16 -41t-41 -17z" />
    <glyph glyph-name="semicolon" unicode=";" horiz-adv-x="262" 
d="M136 304q-23 0 -40 16t-17 41q0 24 17 41t40 17q24 0 41 -17t17 -41q0 -23 -17 -40t-41 -17zM64 -169h-52l85 247q11 13 24.5 20t33.5 7q18 0 27.5 -7.5t11.5 -19.5z" />
    <glyph glyph-name="less" unicode="&#x3c;" 
d="M72 308v58l384 169v-66l-312 -132l312 -132v-65z" />
    <glyph glyph-name="equal" unicode="=" 
d="M72 392v60h384v-60h-384zM72 215v60h384v-60h-384z" />
    <glyph glyph-name="greater" unicode="&#x3e;" 
d="M72 140v65l312 132l-312 132v66l384 -169v-58z" />
    <glyph glyph-name="question" unicode="?" horiz-adv-x="394" 
d="M236 372l-11 -146h-66l-14 173q55 12 99 45.5t44 84.5q0 46 -29.5 75t-87.5 29q-33 0 -57.5 -7t-46.5 -19l-25 52q27 16 63.5 26.5t80.5 10.5q89 0 141.5 -44t52.5 -118q0 -61 -45.5 -104t-98.5 -58zM192 -5q-23 0 -40 17t-17 41t17 41t40 17q24 0 41 -17t17 -41t-17 -41
t-41 -17z" />
    <glyph glyph-name="at" unicode="@" horiz-adv-x="870" 
d="M583 65q-35 0 -53 21t-18 71q-29 -48 -67 -69.5t-88 -21.5q-57 0 -87.5 45t-30.5 111q0 92 56 182.5t144 90.5q45 0 73.5 -25.5t42.5 -68.5l15 77h50l-34 -158q-10 -44 -17.5 -82.5t-7.5 -66.5q0 -38 9 -52t32 -14q59 0 109 105t50 203q0 116 -69 184t-181 68
q-170 0 -286 -134.5t-116 -309.5q0 -154 89.5 -237.5t238.5 -83.5q108 0 183 35.5t146 111.5l22 -26q-71 -80 -153 -118t-198 -38q-170 0 -270.5 93.5t-100.5 263.5q0 193 131 335t317 142q129 0 209 -77t80 -209q0 -115 -61 -231.5t-159 -116.5zM445 455q-69 0 -110 -78.5
t-41 -152.5q0 -49 22.5 -83t65.5 -34q70 0 111.5 77t41.5 151q0 58 -26 89t-64 31z" />
    <glyph glyph-name="A" unicode="A" horiz-adv-x="585" 
d="M471 0l-65 206h-236l-67 -206h-84l233 688h82l232 -688h-95zM311 522q-13 41 -15.5 58.5t-4.5 24.5l-7 -28t-16 -55l-82 -261h205z" />
    <glyph glyph-name="B" unicode="B" horiz-adv-x="562" 
d="M265 -10q-58 0 -106 10t-82 28v632q29 17 76.5 27.5t102.5 10.5q111 0 171.5 -47t60.5 -125q0 -68 -40 -108.5t-94 -51.5q58 -13 109 -61t51 -119q0 -99 -67.5 -147.5t-181.5 -48.5zM255 645q-49 0 -91 -15v-245h45q104 0 147 32t43 102q0 126 -144 126zM210 339h-46
v-274q38 -16 97 -16q74 0 117 32t43 104q0 81 -49.5 117.5t-161.5 36.5z" />
    <glyph glyph-name="C" unicode="C" horiz-adv-x="478" 
d="M312 -10q-120 0 -189 101t-69 253q0 151 68.5 252.5t189.5 101.5q45 0 76.5 -9.5t57.5 -28.5l-22 -54q-18 11 -42.5 19t-53.5 8q-92 0 -135 -83t-43 -206q0 -122 44 -203.5t133 -81.5q31 0 52 6.5t44 20.5l24 -58q-24 -18 -58 -28t-77 -10z" />
    <glyph glyph-name="D" unicode="D" horiz-adv-x="595" 
d="M259 -10q-60 0 -106 10t-76 27v633q69 38 178 38q140 0 213 -92t73 -255q0 -167 -70 -264t-212 -97zM253 639q-51 0 -85 -14v-557q33 -13 86 -13q102 0 147 73.5t45 223.5q0 287 -193 287z" />
    <glyph glyph-name="E" unicode="E" horiz-adv-x="442" 
d="M77 0v688h319v-62h-227v-240h204v-61h-204v-263h227v-62h-319z" />
    <glyph glyph-name="F" unicode="F" horiz-adv-x="434" 
d="M169 626v-240h203v-61h-203v-325h-92v688h318v-62h-226z" />
    <glyph glyph-name="G" unicode="G" horiz-adv-x="588" 
d="M343 -10q-126 0 -207.5 92t-81.5 267q0 165 82.5 257t206.5 92q54 0 94 -9.5t67 -26.5l-27 -57q-19 12 -50.5 20t-73.5 8q-98 0 -151 -72.5t-53 -219.5q0 -136 54 -211.5t139 -75.5q32 0 53 4.5t33 11.5v258h-117v58h206v-358q-34 -20 -73 -29t-101 -9z" />
    <glyph glyph-name="H" unicode="H" horiz-adv-x="597" 
d="M428 0v325h-259v-325h-92v688h92v-302h259v302h92v-688h-92z" />
    <glyph glyph-name="I" unicode="I" horiz-adv-x="253" 
d="M80 0v688h92v-688h-92z" />
    <glyph glyph-name="J" unicode="J" horiz-adv-x="253" 
d="M-44 -220v65q54 14 89 60t35 118v665h92v-660q0 -106 -61.5 -170.5t-154.5 -77.5z" />
    <glyph glyph-name="K" unicode="K" horiz-adv-x="519" 
d="M397 0l-224 356l-2 -356h-91v688h91v-319l223 319h96l-235 -320l246 -368h-104z" />
    <glyph glyph-name="L" unicode="L" horiz-adv-x="411" 
d="M80 0v688h92v-626h207v-62h-299z" />
    <glyph glyph-name="M" unicode="M" horiz-adv-x="782" 
d="M642 0l-53 515q-2 24 -3 48.5t-2 32.5q-4 -15 -8.5 -33.5t-12.5 -47.5l-146 -515h-61l-144 516q-7 24 -12 47.5t-7 32.5q-2 -15 -3 -32t-4 -48l-54 -516h-79l82 688h97l138 -497q9 -33 12 -49t6 -29q3 12 7 29.5t13 47.5l142 498h97l82 -688h-87z" />
    <glyph glyph-name="N" unicode="N" horiz-adv-x="647" 
d="M490 0l-293 502q-9 16 -22.5 42t-21.5 41v-36t1 -49v-500h-77v688h97l281 -483q16 -26 25.5 -46t13.5 -27q0 15 -0.5 29t-0.5 32v15v480h77v-688h-80z" />
    <glyph glyph-name="O" unicode="O" horiz-adv-x="605" 
d="M303 -10q-127 0 -188 98t-61 256t61 256t188 98q126 0 187 -98t61 -256q0 -159 -60.5 -256.5t-187.5 -97.5zM303 637q-86 0 -121 -83t-35 -207q0 -127 33.5 -208t122.5 -81q88 0 121.5 81.5t33.5 207.5q0 125 -34.5 207.5t-120.5 82.5z" />
    <glyph glyph-name="P" unicode="P" horiz-adv-x="525" 
d="M198 283l-31 3v-286h-90v660q29 17 74.5 27.5t97.5 10.5q117 0 176 -56.5t59 -151.5q0 -91 -59.5 -150.5t-178.5 -59.5q-22 0 -48 3zM245 643q-27 0 -45.5 -3.5t-32.5 -9.5v-288l30 -3q13 -1 22.5 -1.5t15.5 -0.5q83 0 121.5 41t38.5 113q0 76 -36 114t-114 38z" />
    <glyph glyph-name="Q" unicode="Q" horiz-adv-x="605" 
d="M420 21l119 -150l-69 -61l-104 191q-32 -8 -63 -8q-127 0 -188 98t-61 254q0 158 60.5 255.5t188.5 97.5q127 0 187.5 -97.5t60.5 -255.5q0 -113 -31 -195t-100 -129zM303 637q-88 0 -122 -82t-34 -206q0 -128 33 -208.5t123 -80.5q89 0 122.5 81t33.5 208t-33.5 207.5
t-122.5 80.5z" />
    <glyph glyph-name="R" unicode="R" horiz-adv-x="542" 
d="M398 0l-226 321l-2 -321h-91v661q29 16 73.5 26.5t97.5 10.5q115 0 175.5 -53.5t60.5 -150.5q0 -87 -57 -138t-152 -51l225 -305h-104zM248 644q-51 0 -78 -15v-288q20 -6 59 -6q83 0 124.5 39.5t41.5 115.5q0 154 -147 154z" />
    <glyph glyph-name="S" unicode="S" horiz-adv-x="465" 
d="M203 -10q-57 0 -93.5 9.5t-66.5 28.5l24 64q23 -14 52.5 -23t67.5 -9q59 0 94 35t35 94q0 46 -27 76t-100 59t-106 76.5t-33 104.5q0 80 53.5 136.5t140.5 56.5q47 0 81.5 -9.5t59.5 -27.5l-22 -58q-23 14 -49.5 23t-59.5 9q-54 0 -84 -33t-30 -88q0 -48 30 -76t103 -57
t105.5 -79t32.5 -108q0 -90 -58 -147t-150 -57z" />
    <glyph glyph-name="T" unicode="T" horiz-adv-x="426" 
d="M259 626v-626h-92v626h-137v62h366v-62h-137z" />
    <glyph glyph-name="U" unicode="U" horiz-adv-x="583" 
d="M291 -11q-97 0 -155.5 58.5t-58.5 148.5v492h92v-491q0 -63 36.5 -99.5t90.5 -36.5q53 0 89.5 36.5t36.5 99.5v491h84v-492q0 -89 -59 -148t-156 -59z" />
    <glyph glyph-name="V" unicode="V" horiz-adv-x="529" 
d="M308 0h-80l-204 688h98l127 -484q6 -23 11 -47.5t9 -42.5l23 90l129 484h87z" />
    <glyph glyph-name="W" unicode="W" horiz-adv-x="817" 
d="M622 0h-81l-116 480q-5 22 -8.5 42.5t-6.5 34.5q-2 -13 -4 -26.5t-11 -50.5l-117 -480h-81l-161 688h95l99 -497q5 -25 7.5 -48t4.5 -31q2 15 4.5 28t12.5 51l119 497h70l118 -497q5 -21 9 -45.5t5 -33.5q3 15 6 36.5t8 42.5l104 497h85z" />
    <glyph glyph-name="X" unicode="X" horiz-adv-x="519" 
d="M392 0l-134 285l-141 -285h-93l187 354l-167 334h100l116 -260l133 260h86l-171 -323l188 -365h-104z" />
    <glyph glyph-name="Y" unicode="Y" horiz-adv-x="500" 
d="M296 305v-305h-92v305l-187 383h99l137 -311l144 311h88z" />
    <glyph glyph-name="Z" unicode="Z" horiz-adv-x="433" 
d="M24 0l253 626h-237v62h353l-250 -626h257v-62h-376z" />
    <glyph glyph-name="bracketleft" unicode="[" horiz-adv-x="343" 
d="M78 -215v1000h215v-52h-136v-895h137v-53h-216z" />
    <glyph glyph-name="backslash" unicode="\" horiz-adv-x="568" 
d="M493 -227l-477 994l59 30l477 -995z" />
    <glyph glyph-name="bracketright" unicode="]" horiz-adv-x="343" 
d="M49 -215v53h136v895h-136v52h216v-1000h-216z" />
    <glyph glyph-name="asciicircum" unicode="^" horiz-adv-x="578" 
d="M451 446l-162 184l-162 -184l-32 33l147 192q19 25 47 25t47 -25l147 -192z" />
    <glyph glyph-name="underscore" unicode="_" 
d="M-10 -197v57h548v-57h-548z" />
    <glyph glyph-name="grave" unicode="`" horiz-adv-x="196" 
d="M106 598l-114 136q3 9 12.5 13t24.5 4q16 0 28.5 -3t28.5 -13l70 -137h-50z" />
    <glyph glyph-name="a" unicode="a" horiz-adv-x="499" 
d="M249 -10q-103 0 -154 41.5t-51 117.5q0 99 79 143t222 59v33q0 59 -31.5 83t-87.5 24q-36 0 -68 -9.5t-62 -24.5l-21 52q27 15 71 27.5t94 12.5q83 0 135.5 -41.5t52.5 -133.5v-346q-33 -18 -77 -28t-102 -10zM345 306q-112 -14 -164.5 -46.5t-52.5 -108.5q0 -56 33 -83
t95 -27q56 0 89 18v247z" />
    <glyph glyph-name="b" unicode="b" horiz-adv-x="527" 
d="M232 -10q-52 0 -93.5 10.5t-67.5 27.5v757h87v-264q25 13 48.5 19t61.5 6q94 0 151.5 -72.5t57.5 -194.5q0 -133 -63.5 -211t-181.5 -78zM246 494q-29 0 -48.5 -5t-39.5 -16v-413q13 -7 34 -10t42 -3q80 0 117.5 60.5t37.5 168.5q0 96 -35.5 157t-107.5 61z" />
    <glyph glyph-name="c" unicode="c" horiz-adv-x="411" 
d="M255 -10q-91 0 -148 75.5t-57 204.5q0 131 57 205t150 74q46 0 74 -10.5t45 -25.5l-21 -51q-14 10 -34 18t-46 8q-71 0 -103.5 -57t-32.5 -158q0 -98 34.5 -158t98.5 -60q27 0 45 6.5t37 19.5l22 -55q-17 -16 -47.5 -26t-73.5 -10z" />
    <glyph glyph-name="d" unicode="d" horiz-adv-x="527" 
d="M287 -10q-113 0 -175 73t-62 198q0 132 64 207.5t170 75.5q41 0 85 -12v253h87v-757q-27 -17 -71.5 -27.5t-97.5 -10.5zM369 483q-14 4 -32.5 7t-34.5 3q-87 0 -126 -63t-39 -162q0 -102 37 -161t117 -59q55 0 78 15v420z" />
    <glyph glyph-name="e" unicode="e" horiz-adv-x="522" 
d="M133 236q0 -90 44 -136t120 -46q44 0 75.5 8t57.5 23l23 -58q-27 -16 -68.5 -26.5t-94.5 -10.5q-110 0 -175 70.5t-65 210.5q0 134 59.5 206t157.5 72q99 0 152 -65.5t53 -198.5zM264 492q-62 0 -98 -51.5t-36 -157.5l258 39q0 89 -31.5 129.5t-92.5 40.5z" />
    <glyph glyph-name="f" unicode="f" horiz-adv-x="310" 
d="M189 484v-484h-88v484h-62v55h62v76q0 81 46.5 125.5t135.5 44.5v-56q-43 0 -68.5 -24.5t-25.5 -79.5v-86h94v-55h-94z" />
    <glyph glyph-name="g" unicode="g" horiz-adv-x="526" 
d="M248 -226q-53 0 -95.5 9.5t-71.5 27.5l27 59q23 -13 57 -22.5t68 -9.5q70 0 103.5 38.5t33.5 102.5v38q-39 -23 -108 -23q-97 0 -154.5 71.5t-57.5 194.5q0 133 62.5 211t182.5 78q54 0 93.5 -10.5t66.5 -27.5v-522q0 -101 -55 -158t-152 -57zM370 481q-13 7 -34.5 11
t-42.5 4q-80 0 -118 -61t-38 -172q0 -107 35.5 -162t112.5 -55q24 0 46 6t39 16v413z" />
    <glyph glyph-name="h" unicode="h" horiz-adv-x="533" 
d="M374 0v382q0 48 -24.5 77t-85.5 29q-30 0 -55.5 -6t-49.5 -21v-461h-88v785h88v-274q65 33 124 33q94 0 136.5 -46t42.5 -113v-385h-88z" />
    <glyph glyph-name="i" unicode="i" horiz-adv-x="241" 
d="M121 643q-22 0 -37 14t-15 34q0 21 15 35t37 14q21 0 36 -14t15 -35q0 -20 -15 -34t-36 -14zM77 0v539h88v-539h-88z" />
    <glyph glyph-name="j" unicode="j" horiz-adv-x="244" 
d="M123 643q-21 0 -36.5 14.5t-15.5 33.5q0 21 15 35t37 14t37 -14t15 -35q0 -20 -15 -34t-37 -14zM-20 -222v58q47 17 73 61.5t26 127.5v514h88v-508q0 -110 -54.5 -177t-132.5 -76z" />
    <glyph glyph-name="k" unicode="k" horiz-adv-x="476" 
d="M370 0l-206 278l-2 -278h-86v785h86v-496l194 250h92l-204 -252l226 -287h-100z" />
    <glyph glyph-name="l" unicode="l" horiz-adv-x="243" 
d="M77 0v785h88v-785h-88z" />
    <glyph glyph-name="m" unicode="m" horiz-adv-x="836" 
d="M677 0v388q0 46 -24 74.5t-80 28.5q-66 0 -111 -48v-443h-88v392q0 46 -30 73t-88 27q-34 0 -53 -3.5t-44 -14.5v-474h-88v511q40 19 82.5 28.5t104.5 9.5q60 0 99.5 -16.5t65.5 -48.5q29 30 70.5 47.5t96.5 17.5q89 0 132 -47t43 -112v-390h-88z" />
    <glyph glyph-name="n" unicode="n" horiz-adv-x="533" 
d="M374 0v387q0 45 -25 75t-88 30q-34 0 -56 -4.5t-46 -14.5v-473h-88v511q39 19 86 28.5t111 9.5q103 0 148.5 -46.5t45.5 -113.5v-389h-88z" />
    <glyph glyph-name="o" unicode="o" horiz-adv-x="521" 
d="M261 -10q-105 0 -158 77t-53 202q0 127 52.5 203.5t157.5 76.5q107 0 159 -76t52 -204q0 -126 -52.5 -202.5t-157.5 -76.5zM261 493q-70 0 -96.5 -63t-26.5 -161t26.5 -158t96.5 -60t96 60.5t26 157.5q0 99 -26 161.5t-96 62.5z" />
    <glyph glyph-name="p" unicode="p" horiz-adv-x="527" 
d="M242 -8q-21 0 -45 4t-39 9v-220h-87v726q30 17 71 27.5t97 10.5q113 0 175.5 -72.5t62.5 -198.5q0 -133 -63.5 -209.5t-171.5 -76.5zM235 496q-24 0 -42 -4t-35 -11v-423q29 -12 66 -12q81 0 123 59.5t42 168.5q0 108 -36 165t-118 57z" />
    <glyph glyph-name="q" unicode="q" horiz-adv-x="527" 
d="M370 -215v232q-19 -11 -47 -18t-62 -7q-97 0 -154 72t-57 195q0 132 61.5 211t183.5 79q55 0 94.5 -10.5t66.5 -27.5v-726h-86zM370 481q-13 7 -34.5 11t-42.5 4q-78 0 -117 -61.5t-39 -171.5q0 -106 36 -161.5t111 -55.5q26 0 46.5 5.5t39.5 16.5v413z" />
    <glyph glyph-name="r" unicode="r" horiz-adv-x="322" 
d="M282 481q-24 7 -53 7q-42 0 -70 -17v-471h-88v510q41 21 90 29.5t142 8.5z" />
    <glyph glyph-name="s" unicode="s" horiz-adv-x="404" 
d="M176 -8q-44 0 -79.5 10t-58.5 27l24 58q16 -14 43.5 -23t61.5 -9q44 0 72 27t28 66q0 40 -21 62.5t-80.5 45t-86.5 60.5t-27 86q0 63 44.5 105.5t116.5 42.5q39 0 70 -10t56 -27l-23 -53q-15 11 -39 20.5t-51 9.5q-43 0 -66.5 -24.5t-23.5 -60.5t23 -58t82 -44.5
t87.5 -61t28.5 -91.5q0 -64 -50.5 -111t-130.5 -47z" />
    <glyph glyph-name="t" unicode="t" horiz-adv-x="321" 
d="M235 -5q-68 0 -101 39.5t-33 96.5v353h-62v55h62v124l88 27v-151h94v-55h-94v-351q0 -35 16.5 -56.5t51.5 -21.5q8 0 26 4v-56q-11 -3 -22 -5.5t-26 -2.5z" />
    <glyph glyph-name="u" unicode="u" horiz-adv-x="523" 
d="M262 -11q-98 0 -144.5 46t-46.5 130v374h88v-377q0 -50 27 -80.5t81 -30.5q60 0 97 22v466h88v-507q-33 -19 -80.5 -31t-109.5 -12z" />
    <glyph glyph-name="v" unicode="v" horiz-adv-x="488" 
d="M287 0h-79l-179 539h94l113 -386q7 -23 9.5 -41t4.5 -25q2 12 4.5 25.5t10.5 40.5l115 386h82z" />
    <glyph glyph-name="w" unicode="w" horiz-adv-x="771" 
d="M585 0h-76l-109 385q-7 24 -8.5 40t-2.5 23q-2 -12 -4.5 -25.5t-9.5 -37.5l-111 -385h-76l-153 539h90l94 -387q7 -28 8.5 -42.5t2.5 -21.5q3 16 7.5 33.5t7.5 30.5l109 387h76l106 -387q5 -20 7.5 -38.5t4.5 -25.5q2 12 4 24.5t9 40.5l98 386h80z" />
    <glyph glyph-name="x" unicode="x" horiz-adv-x="472" 
d="M351 0l-116 219l-120 -219h-91l167 279l-149 260h92l105 -197l109 197h83l-150 -253l167 -286h-97z" />
    <glyph glyph-name="y" unicode="y" horiz-adv-x="488" 
d="M214 -215h-95l90 215l-180 539h94l111 -387q6 -21 8.5 -41.5t4.5 -27.5l4 24t12 45l117 387h82z" />
    <glyph glyph-name="z" unicode="z" horiz-adv-x="417" 
d="M30 0l227 484h-210v55h322l-222 -484h230v-55h-347z" />
    <glyph glyph-name="braceleft" unicode="{" horiz-adv-x="370" 
d="M129 24v156q0 67 -18 96t-59 29v49q40 0 58.5 28.5t18.5 94.5v156q0 77 50 114.5t136 37.5v-48q-108 0 -108 -102v-184q0 -54 -21.5 -83t-61.5 -38q41 -11 62 -40t21 -84v-184q0 -53 26.5 -77.5t81.5 -24.5v-49q-87 0 -136.5 37t-49.5 116z" />
    <glyph glyph-name="bar" unicode="|" horiz-adv-x="228" 
d="M78 -215v1000h72v-1000h-72z" />
    <glyph glyph-name="braceright" unicode="}" horiz-adv-x="370" 
d="M241 180v-156q0 -79 -49.5 -116t-136.5 -37v49q109 0 109 102v184q0 53 21.5 83t60.5 39q-40 10 -61 39.5t-21 83.5v184q0 53 -27.5 77.5t-81.5 24.5v48q87 0 136.5 -37t49.5 -115v-156q0 -67 18 -95t59 -28v-49q-40 0 -58.5 -29t-18.5 -96z" />
    <glyph glyph-name="asciitilde" unicode="~" horiz-adv-x="578" 
d="M391 273q-5 -1 -15 -1q-32 0 -85 31.5t-84 31.5h-12q-31 -4 -50 -23t-30 -44l-31 51q16 37 37.5 57.5t44 23t32.5 2.5q35 0 87.5 -32.5t82.5 -32.5q8 0 25.5 2.5t36.5 20.5t30 45l34 -52q-11 -34 -35 -54t-68 -26z" />
    <glyph glyph-name="Adieresis" unicode="&#xc4;" horiz-adv-x="585" 
d="M375 757q-18 0 -31.5 12.5t-13.5 30.5t13.5 30.5t31.5 12.5q19 0 32.5 -12.5t13.5 -30.5t-13.5 -30.5t-32.5 -12.5zM211 757q-19 0 -32 12t-13 31q0 18 13.5 30.5t31.5 12.5q19 0 32 -12t13 -31q0 -18 -13.5 -30.5t-31.5 -12.5zM471 0l-65 206h-236l-67 -206h-84l233 688
h82l232 -688h-95zM311 522q-13 40 -15.5 57.5t-4.5 23.5q-3 -11 -7 -26.5t-16 -54.5l-82 -261h205z" />
    <glyph glyph-name="Aring" unicode="&#xc5;" horiz-adv-x="585" 
d="M293 738q-33 0 -56.5 23.5t-23.5 56.5q0 34 23.5 57.5t56.5 23.5q34 0 57.5 -23.5t23.5 -57.5q0 -33 -23.5 -56.5t-57.5 -23.5zM471 0l-65 206h-236l-67 -206h-84l233 688h82l232 -688h-95zM293 865q-20 0 -33.5 -13.5t-13.5 -33.5t13.5 -33.5t33.5 -13.5t33.5 13.5
t13.5 33.5t-13.5 33.5t-33.5 13.5zM311 522q-13 40 -15.5 57.5t-4.5 23.5q-3 -11 -7 -26.5t-16 -54.5l-82 -261h205z" />
    <glyph glyph-name="Ccedilla" unicode="&#xc7;" horiz-adv-x="478" 
d="M312 -10q-120 0 -189 101t-69 253q0 151 68.5 252.5t189.5 101.5q45 0 76.5 -9.5t57.5 -28.5l-22 -54q-18 11 -42.5 19t-53.5 8q-92 0 -135 -83t-43 -206q0 -122 44 -203.5t133 -81.5q31 0 52 6.5t44 20.5l24 -58q-24 -18 -58 -28t-77 -10zM139 -196l21 34q85 0 127 6.5
t42 30.5q0 21 -27 26.5t-100 5.5l20 31q30 3 54 3q63 0 91 -17.5t28 -47.5q0 -43 -61.5 -57.5t-194.5 -14.5z" />
    <glyph glyph-name="Eacute" unicode="&#xc9;" horiz-adv-x="441" 
d="M241 740h-50l70 137q28 17 57 17q31 0 37 -18zM77 0v688h319v-62h-227v-240h204v-61h-204v-263h227v-62h-319z" />
    <glyph glyph-name="Ntilde" unicode="&#xd1;" horiz-adv-x="647" 
d="M396 754q-4 -1 -12 -1q-22 0 -64.5 19t-62.5 19q-19 0 -30 -13t-19 -31l-26 40q11 27 27 41t49 14q24 0 65.5 -21t61.5 -18q22 3 33.5 14.5t18.5 29.5l27 -41q-7 -21 -22.5 -34.5t-45.5 -17.5zM490 0l-293 502q-9 16 -22.5 42t-21.5 41v-36t1 -49v-500h-77v688h97
l281 -483q16 -26 25.5 -46t13.5 -27q0 15 -0.5 29t-0.5 32v15v480h77v-688h-80z" />
    <glyph glyph-name="Odieresis" unicode="&#xd6;" horiz-adv-x="605" 
d="M385 757q-19 0 -32 12t-13 31q0 18 13.5 30.5t31.5 12.5q19 0 32 -12t13 -31q0 -18 -13.5 -30.5t-31.5 -12.5zM220 757q-19 0 -32 12t-13 31q0 18 13.5 30.5t31.5 12.5q19 0 32.5 -12.5t13.5 -30.5t-13.5 -30.5t-32.5 -12.5zM303 -10q-127 0 -188 98t-61 256t61 256
t188 98q126 0 187 -98t61 -256q0 -159 -60.5 -256.5t-187.5 -97.5zM303 637q-86 0 -121 -83t-35 -207q0 -127 33.5 -208t122.5 -81q88 0 121.5 81.5t33.5 207.5q0 125 -34.5 207.5t-120.5 82.5z" />
    <glyph glyph-name="Udieresis" unicode="&#xdc;" horiz-adv-x="583" 
d="M379 757q-19 0 -32 12t-13 31q0 18 13.5 30.5t31.5 12.5q19 0 32.5 -12.5t13.5 -30.5t-13.5 -30.5t-32.5 -12.5zM214 757q-18 0 -31.5 12.5t-13.5 30.5t13.5 30.5t31.5 12.5q19 0 32.5 -12.5t13.5 -30.5t-13.5 -30.5t-32.5 -12.5zM291 -11q-97 0 -155.5 58.5t-58.5 148.5
v492h92v-491q0 -63 36.5 -99.5t90.5 -36.5q53 0 89.5 36.5t36.5 99.5v491h84v-492q0 -89 -59 -148t-156 -59z" />
    <glyph glyph-name="aacute" unicode="&#xe1;" horiz-adv-x="499" 
d="M267 598h-50l70 137q28 17 58 17t36 -18zM249 -10q-103 0 -154 41.5t-51 117.5q0 99 79 143t222 59v33q0 59 -31.5 83t-87.5 24q-36 0 -68 -9.5t-62 -24.5l-21 52q27 15 71 27.5t94 12.5q83 0 135.5 -41.5t52.5 -133.5v-346q-33 -18 -77 -28t-102 -10zM345 306
q-112 -14 -164.5 -46.5t-52.5 -108.5q0 -56 33 -83t95 -27q56 0 89 18v247z" />
    <glyph glyph-name="agrave" unicode="&#xe0;" horiz-adv-x="499" 
d="M253 598l-114 136q7 17 38 17q20 0 31 -3.5t25 -12.5l70 -137h-50zM249 -10q-103 0 -154 41.5t-51 117.5q0 99 79 143t222 59v33q0 59 -31.5 83t-87.5 24q-36 0 -68 -9.5t-62 -24.5l-21 52q27 15 71 27.5t94 12.5q83 0 135.5 -41.5t52.5 -133.5v-346q-33 -18 -77 -28
t-102 -10zM345 306q-112 -14 -164.5 -46.5t-52.5 -108.5q0 -56 33 -83t95 -27q56 0 89 18v247z" />
    <glyph glyph-name="acircumflex" unicode="&#xe2;" horiz-adv-x="499" 
d="M358 597l-107 79l-107 -79l-26 22l99 100q15 15 33 15q20 0 34 -15l99 -100zM249 -10q-103 0 -154 41.5t-51 117.5q0 99 79 143t222 59v33q0 59 -31.5 83t-87.5 24q-36 0 -68 -9.5t-62 -24.5l-21 52q27 15 71 27.5t94 12.5q83 0 135.5 -41.5t52.5 -133.5v-346
q-33 -18 -77 -28t-102 -10zM345 306q-112 -14 -164.5 -46.5t-52.5 -108.5q0 -56 33 -83t95 -27q56 0 89 18v247z" />
    <glyph glyph-name="adieresis" unicode="&#xe4;" horiz-adv-x="499" 
d="M337 617q-19 0 -32 12t-13 30t13.5 30.5t31.5 12.5q19 0 32.5 -12.5t13.5 -30.5t-13 -30t-33 -12zM173 617q-19 0 -32.5 12.5t-13.5 29.5q0 18 13.5 30.5t32.5 12.5q18 0 31.5 -12.5t13.5 -30.5t-13 -30t-32 -12zM249 -10q-103 0 -154 41.5t-51 117.5q0 99 79 143t222 59
v33q0 59 -31.5 83t-87.5 24q-36 0 -68 -9.5t-62 -24.5l-21 52q27 15 71 27.5t94 12.5q83 0 135.5 -41.5t52.5 -133.5v-346q-33 -18 -77 -28t-102 -10zM345 306q-112 -14 -164.5 -46.5t-52.5 -108.5q0 -56 33 -83t95 -27q56 0 89 18v247z" />
    <glyph glyph-name="atilde" unicode="&#xe3;" horiz-adv-x="499" 
d="M321 612q-4 -1 -12 -1q-22 0 -64 19.5t-63 19.5q-18 0 -30 -13.5t-19 -30.5l-25 40q10 25 26.5 39.5t48.5 14.5q26 0 65 -19.5t58 -19.5q23 0 36 13t20 31l28 -40q-8 -22 -23.5 -35.5t-45.5 -17.5zM249 -10q-103 0 -154 41.5t-51 117.5q0 99 79 143t222 59v33
q0 59 -31.5 83t-87.5 24q-36 0 -68 -9.5t-62 -24.5l-21 52q27 15 71 27.5t94 12.5q83 0 135.5 -41.5t52.5 -133.5v-346q-33 -18 -77 -28t-102 -10zM345 306q-112 -14 -164.5 -46.5t-52.5 -108.5q0 -56 33 -83t95 -27q56 0 89 18v247z" />
    <glyph glyph-name="aring" unicode="&#xe5;" horiz-adv-x="499" 
d="M254 596q-33 0 -56.5 23.5t-23.5 57.5q0 33 23.5 56.5t56.5 23.5q34 0 57.5 -23.5t23.5 -56.5q0 -34 -23.5 -57.5t-57.5 -23.5zM249 -10q-103 0 -154 41.5t-51 117.5q0 99 79 143t222 59v33q0 59 -31.5 83t-87.5 24q-36 0 -68 -9.5t-62 -24.5l-21 52q27 15 71 27.5
t94 12.5q83 0 135.5 -41.5t52.5 -133.5v-346q-33 -18 -77 -28t-102 -10zM254 724q-20 0 -33.5 -13.5t-13.5 -33.5t13.5 -33.5t33.5 -13.5t33.5 13.5t13.5 33.5t-13.5 33.5t-33.5 13.5zM345 306q-112 -14 -164.5 -46.5t-52.5 -108.5q0 -56 33 -83t95 -27q56 0 89 18v247z" />
    <glyph glyph-name="ccedilla" unicode="&#xe7;" horiz-adv-x="411" 
d="M255 -10q-91 0 -148 75.5t-57 204.5q0 131 57 205t150 74q46 0 74 -10.5t45 -25.5l-21 -51q-14 10 -34 18t-46 8q-71 0 -103.5 -57t-32.5 -158q0 -98 34.5 -158t98.5 -60q27 0 45 6.5t37 19.5l22 -55q-17 -16 -47.5 -26t-73.5 -10zM84 -196l20 34q86 0 128 6.5t42 30.5
q0 21 -27 26.5t-100 5.5l20 31q30 3 54 3q63 0 91 -17.5t28 -47.5q0 -43 -62 -57.5t-194 -14.5z" />
    <glyph glyph-name="eacute" unicode="&#xe9;" horiz-adv-x="522" 
d="M276 598h-50l70 137q28 17 58 17t36 -18zM133 236q0 -90 44 -136t120 -46q44 0 75.5 8t57.5 23l23 -58q-27 -16 -68.5 -26.5t-94.5 -10.5q-110 0 -175 70.5t-65 210.5q0 134 59.5 206t157.5 72q99 0 152 -65.5t53 -198.5zM264 492q-62 0 -98 -51.5t-36 -157.5l258 39
q0 89 -31.5 129.5t-92.5 40.5z" />
    <glyph glyph-name="egrave" unicode="&#xe8;" horiz-adv-x="522" 
d="M260 598l-114 136q7 17 38 17q20 0 31 -3.5t25 -12.5l70 -137h-50zM133 236q0 -90 44 -136t120 -46q44 0 75.5 8t57.5 23l23 -58q-27 -16 -68.5 -26.5t-94.5 -10.5q-110 0 -175 70.5t-65 210.5q0 134 59.5 206t157.5 72q99 0 152 -65.5t53 -198.5zM264 492
q-62 0 -98 -51.5t-36 -157.5l258 39q0 89 -31.5 129.5t-92.5 40.5z" />
    <glyph glyph-name="ecircumflex" unicode="&#xea;" horiz-adv-x="522" 
d="M372 597l-106 79l-108 -79l-25 22l99 100q14 15 33 15t34 -15l99 -100zM133 236q0 -90 44 -136t120 -46q44 0 75.5 8t57.5 23l23 -58q-27 -16 -68.5 -26.5t-94.5 -10.5q-110 0 -175 70.5t-65 210.5q0 134 59.5 206t157.5 72q99 0 152 -65.5t53 -198.5zM264 492
q-62 0 -98 -51.5t-36 -157.5l258 39q0 89 -31.5 129.5t-92.5 40.5z" />
    <glyph glyph-name="edieresis" unicode="&#xeb;" horiz-adv-x="522" 
d="M350 617q-19 0 -32 12t-13 30t13.5 30.5t31.5 12.5q19 0 32 -12t13 -31q0 -18 -13 -30t-32 -12zM185 617q-19 0 -32 12t-13 30t13.5 30.5t31.5 12.5q19 0 32.5 -12.5t13.5 -30.5t-13 -30t-33 -12zM133 236q0 -90 44 -136t120 -46q44 0 75.5 8t57.5 23l23 -58
q-27 -16 -68.5 -26.5t-94.5 -10.5q-110 0 -175 70.5t-65 210.5q0 134 59.5 206t157.5 72q99 0 152 -65.5t53 -198.5zM264 492q-62 0 -98 -51.5t-36 -157.5l258 39q0 89 -31.5 129.5t-92.5 40.5z" />
    <glyph glyph-name="iacute" unicode="&#xed;" horiz-adv-x="241" 
d="M119 598h-50l70 137q28 17 58 17t36 -18zM77 0v539h88v-539h-88z" />
    <glyph glyph-name="igrave" unicode="&#xec;" horiz-adv-x="241" 
d="M122 598l-114 136q7 17 38 17q20 0 31 -3.5t25 -12.5l70 -137h-50zM77 0v539h88v-539h-88z" />
    <glyph glyph-name="icircumflex" unicode="&#xee;" horiz-adv-x="241" 
d="M228 597l-107 79l-107 -79l-26 22l99 100q15 15 33 15q19 0 34 -15l99 -100zM77 0v539h88v-539h-88z" />
    <glyph glyph-name="idieresis" unicode="&#xef;" horiz-adv-x="241" 
d="M202 617q-18 0 -31.5 12.5t-13.5 29.5q0 18 13.5 30.5t31.5 12.5q19 0 32.5 -12.5t13.5 -30.5t-13 -30t-33 -12zM39 617q-19 0 -32.5 12.5t-13.5 29.5q0 18 13.5 30.5t32.5 12.5q18 0 31.5 -12.5t13.5 -30.5t-13 -30t-32 -12zM77 0v539h88v-539h-88z" />
    <glyph glyph-name="ntilde" unicode="&#xf1;" horiz-adv-x="533" 
d="M335 612q-4 -1 -12 -1q-21 0 -63.5 19.5t-63.5 19.5q-18 0 -30 -13.5t-18 -30.5l-26 40q10 25 26.5 39.5t48.5 14.5q26 0 65 -19.5t58 -19.5q23 0 36 13t20 31l28 -40q-8 -22 -23.5 -35.5t-45.5 -17.5zM374 0v392q0 51 -29 75.5t-84 24.5q-34 0 -56 -4.5t-46 -14.5v-473
h-88v511q39 19 87 28.5t112 9.5q92 0 142 -37.5t50 -118.5v-393h-88z" />
    <glyph glyph-name="oacute" unicode="&#xf3;" horiz-adv-x="521" 
d="M270 598h-50l70 137q28 17 58 17t36 -18zM261 -10q-105 0 -158 77t-53 202q0 127 52.5 203.5t157.5 76.5q107 0 159 -76t52 -204q0 -126 -52.5 -202.5t-157.5 -76.5zM261 493q-70 0 -96.5 -63t-26.5 -161t26.5 -158t96.5 -60t96 60.5t26 157.5q0 99 -26 161.5t-96 62.5z
" />
    <glyph glyph-name="ograve" unicode="&#xf2;" horiz-adv-x="521" 
d="M252 598l-115 136q7 17 38 17t56 -16l70 -137h-49zM261 -10q-105 0 -158 77t-53 202q0 127 52.5 203.5t157.5 76.5q107 0 159 -76t52 -204q0 -126 -52.5 -202.5t-157.5 -76.5zM261 493q-70 0 -96.5 -63t-26.5 -161t26.5 -158t96.5 -60t96 60.5t26 157.5q0 99 -26 161.5
t-96 62.5z" />
    <glyph glyph-name="ocircumflex" unicode="&#xf4;" horiz-adv-x="521" 
d="M367 597l-106 79l-108 -79l-25 22l99 100q14 15 33 15t34 -15l99 -100zM261 -10q-105 0 -158 77t-53 202q0 127 52.5 203.5t157.5 76.5q107 0 159 -76t52 -204q0 -126 -52.5 -202.5t-157.5 -76.5zM261 493q-70 0 -96.5 -63t-26.5 -161t26.5 -158t96.5 -60t96 60.5
t26 157.5q0 99 -26 161.5t-96 62.5z" />
    <glyph glyph-name="odieresis" unicode="&#xf6;" horiz-adv-x="521" 
d="M342 617q-18 0 -31.5 12.5t-13.5 29.5q0 18 13.5 30.5t31.5 12.5q19 0 32.5 -12.5t13.5 -30.5t-13 -30t-33 -12zM178 617q-19 0 -32.5 12.5t-13.5 29.5q0 18 13.5 30.5t32.5 12.5q18 0 31.5 -12.5t13.5 -30.5t-13 -30t-32 -12zM261 -10q-105 0 -158 77t-53 202
q0 127 52.5 203.5t157.5 76.5q107 0 159 -76t52 -204q0 -126 -52.5 -202.5t-157.5 -76.5zM261 493q-70 0 -96.5 -63t-26.5 -161t26.5 -158t96.5 -60t96 60.5t26 157.5q0 99 -26 161.5t-96 62.5z" />
    <glyph glyph-name="otilde" unicode="&#xf5;" horiz-adv-x="521" 
d="M331 612q-4 -1 -12 -1q-22 0 -64 19.5t-63 19.5q-18 0 -30 -13.5t-19 -30.5l-26 40q15 33 32.5 43.5t43.5 10.5t65 -19.5t58 -19.5q23 0 36 13t20 31l27 -40q-7 -22 -22.5 -35.5t-45.5 -17.5zM261 -10q-105 0 -158 77t-53 202q0 127 52.5 203.5t157.5 76.5q107 0 159 -76
t52 -204q0 -126 -52.5 -202.5t-157.5 -76.5zM261 493q-70 0 -96.5 -63t-26.5 -161t26.5 -158t96.5 -60t96 60.5t26 157.5q0 99 -26 161.5t-96 62.5z" />
    <glyph glyph-name="uacute" unicode="&#xfa;" horiz-adv-x="523" 
d="M272 598h-49l70 137q28 17 57 17q31 0 37 -18zM262 -11q-98 0 -144.5 46t-46.5 130v374h88v-377q0 -50 27 -80.5t81 -30.5q60 0 97 22v466h88v-507q-33 -19 -80.5 -31t-109.5 -12z" />
    <glyph glyph-name="ugrave" unicode="&#xf9;" horiz-adv-x="523" 
d="M265 598l-115 136q7 17 38 17t56 -16l70 -137h-49zM262 -11q-98 0 -144.5 46t-46.5 130v374h88v-377q0 -50 27 -80.5t81 -30.5q60 0 97 22v466h88v-507q-33 -19 -80.5 -31t-109.5 -12z" />
    <glyph glyph-name="ucircumflex" unicode="&#xfb;" horiz-adv-x="523" 
d="M369 597l-107 79l-107 -79l-25 22l98 100q15 15 34 15t34 -15l98 -100zM262 -11q-98 0 -144.5 46t-46.5 130v374h88v-377q0 -50 27 -80.5t81 -30.5q60 0 97 22v466h88v-507q-33 -19 -80.5 -31t-109.5 -12z" />
    <glyph glyph-name="udieresis" unicode="&#xfc;" horiz-adv-x="523" 
d="M344 617q-19 0 -32.5 12.5t-13.5 29.5q0 18 13.5 30.5t32.5 12.5q18 0 31.5 -12.5t13.5 -30.5t-13 -30t-32 -12zM179 617q-19 0 -32 12t-13 30t13.5 30.5t31.5 12.5q19 0 32 -12t13 -31q0 -18 -13 -30t-32 -12zM262 -11q-98 0 -144.5 46t-46.5 130v374h88v-377
q0 -50 27 -80.5t81 -30.5q60 0 97 22v466h88v-507q-33 -19 -80.5 -31t-109.5 -12z" />
    <glyph glyph-name="dagger" unicode="&#x2020;" horiz-adv-x="553" 
d="M312 465l9 -680h-90l9 680l-190 -8v86l190 -8l-10 250h91l-9 -250l191 8v-86z" />
    <glyph glyph-name="degree" unicode="&#xb0;" horiz-adv-x="420" 
d="M210 399q-62 0 -106 44t-44 106t44 106t106 44t106 -44t44 -106t-44 -106t-106 -44zM210 652q-43 0 -73 -30t-30 -73t30 -73t73 -30t73 30t30 73t-30 73t-73 30z" />
    <glyph glyph-name="cent" unicode="&#xa2;" 
d="M302 104l8 -103h-61l9 106q-79 11 -124.5 72t-45.5 165q0 101 46.5 164t125.5 74l-9 105h60l-7 -103q36 0 61.5 -8t43.5 -22l-19 -46q-16 10 -34.5 15.5t-45.5 5.5q-70 0 -103.5 -48.5t-33.5 -133.5q0 -86 34.5 -135t100.5 -49q24 0 44 5.5t37 15.5l20 -50
q-17 -12 -43.5 -21t-63.5 -9z" />
    <glyph glyph-name="sterling" unicode="&#xa3;" 
d="M69 0q44 53 71 114.5t27 122.5q0 41 -13 93h-96v52h82q-10 33 -16.5 67.5t-6.5 67.5q0 77 55.5 129t147.5 52q49 0 86 -10t60 -25l-23 -56q-20 11 -47.5 19t-61.5 8q-68 0 -99.5 -38t-31.5 -103q0 -50 17 -111h136v-52h-126q4 -20 6.5 -44.5t2.5 -46.5q0 -43 -18 -94
t-33 -72h289v-73h-408z" />
    <glyph glyph-name="section" unicode="&#xa7;" 
d="M334 50q41 -36 55.5 -67.5t14.5 -65.5q0 -60 -45.5 -100t-117.5 -40q-43 0 -75 9.5t-57 26.5l24 55q17 -13 41 -22t53 -9q39 0 67 21t28 57q0 27 -10.5 48t-45.5 51l-103 87q-49 42 -68 80.5t-19 88.5q0 55 33.5 97t83.5 74q-32 31 -45.5 59.5t-13.5 64.5q0 54 42 92
t107 38q42 0 72 -9t52 -25l-22 -49q-17 11 -39.5 19t-50.5 8q-37 0 -60.5 -19.5t-23.5 -55.5q0 -27 14 -52t54 -58l81 -69q53 -45 73 -81.5t20 -86.5q0 -52 -32.5 -93.5t-86.5 -73.5zM317 332l-87 74q-36 -22 -60.5 -52.5t-24.5 -71.5q0 -39 15.5 -68t51.5 -60l81 -69
q40 25 63 53.5t23 67.5q0 41 -12 67t-50 59z" />
    <glyph glyph-name="bullet" unicode="&#x2022;" horiz-adv-x="324" 
d="M162 262q-39 0 -66.5 27.5t-27.5 66.5t27.5 66.5t66.5 27.5t66.5 -27.5t27.5 -66.5t-27.5 -66.5t-66.5 -27.5z" />
    <glyph glyph-name="paragraph" unicode="&#xb6;" 
d="M455 643v-858h-63v858h-135v-858h-63v540q-76 8 -121 56t-45 122q0 95 62 140t159 45h237v-45h-31z" />
    <glyph glyph-name="germandbls" unicode="&#xdf;" horiz-adv-x="550" 
d="M335 -7q-35 0 -58 6t-42 18l19 57q12 -7 29.5 -11.5t39.5 -4.5q42 0 68.5 25.5t26.5 66.5q0 34 -15 55t-56.5 47t-62 57t-20.5 72q0 49 29 80.5t79 45.5q4 12 6 31.5t2 34.5q0 75 -24 118.5t-81 43.5q-62 0 -87.5 -53t-25.5 -147v-535h-88v531q0 108 47 185.5t154 77.5
q91 0 141 -63t50 -158q0 -25 -4 -49t-10 -45q-53 -7 -80 -29t-27 -64q0 -27 15 -47t58.5 -48t65.5 -61.5t22 -80.5q0 -66 -49 -111t-122 -45z" />
    <glyph glyph-name="registered" unicode="&#xae;" horiz-adv-x="825" 
d="M412 -10q-147 0 -250 103t-103 250t103.5 250.5t249.5 103.5q147 0 250.5 -103.5t103.5 -250.5q0 -146 -103.5 -249.5t-250.5 -103.5zM412 654q-128 0 -219 -91t-91 -220q0 -128 91 -219t219 -91q129 0 220 91t91 219t-90.5 219.5t-220.5 91.5zM501 139l-137 193h-15
v-193h-47v408q40 20 98 20q59 0 99 -30.5t40 -87.5q0 -53 -34.5 -83.5t-89.5 -30.5l142 -196h-56zM394 528q-26 0 -45 -8v-155h37q46 0 75.5 20t29.5 65q0 42 -28.5 60t-68.5 18z" />
    <glyph glyph-name="copyright" unicode="&#xa9;" horiz-adv-x="825" 
d="M412 -10q-147 0 -250 103t-103 250t103.5 250.5t249.5 103.5q147 0 250.5 -103.5t103.5 -250.5q0 -146 -103.5 -249.5t-250.5 -103.5zM412 654q-128 0 -219 -91t-91 -220q0 -128 91 -219t219 -91q129 0 220 91t91 219t-90.5 219.5t-220.5 91.5zM415 135
q-87 0 -148.5 61.5t-61.5 148.5q0 88 61.5 149.5t148.5 61.5q49 0 88.5 -19.5t71.5 -55.5l-34 -31q-23 28 -56.5 44.5t-69.5 16.5q-68 0 -116 -48t-48 -118q0 -68 47.5 -116.5t116.5 -48.5q35 0 68 15.5t57 43.5l36 -28q-63 -76 -161 -76z" />
    <glyph glyph-name="trademark" unicode="&#x2122;" horiz-adv-x="782" 
d="M664 341l-36 303l-92 -303h-47l-93 303l-34 -303h-49l45 347h70l85 -297l84 297h71l44 -347h-48zM193 650v-309h-50v309h-97v38h243v-38h-96z" />
    <glyph glyph-name="acute" unicode="&#xb4;" horiz-adv-x="196" 
d="M90 598h-50l70 137q28 17 58 17t36 -18z" />
    <glyph glyph-name="dieresis" unicode="&#xa8;" horiz-adv-x="196" 
d="M180 617q-19 0 -32 12t-13 30t13.5 30.5t31.5 12.5q19 0 32 -12t13 -31q0 -18 -13 -30t-32 -12zM15 617q-19 0 -32 12t-13 30t13.5 30.5t31.5 12.5q19 0 32.5 -12.5t13.5 -30.5t-13 -30t-33 -12z" />
    <glyph glyph-name="notequal" unicode="&#x2260;" 
d="M222 218l-70 -115l-39 24l56 91h-97v58h131l70 115h-201v57h235l66 110l40 -23l-53 -87h96v-57h-129l-71 -115h200v-58h-234z" />
    <glyph glyph-name="AE" unicode="&#xc6;" horiz-adv-x="745" 
d="M460 0l-48 206h-240l-82 -206h-85l287 688h364v-62h-263l61 -240h202v-61h-188l67 -263h188v-62h-263zM338 547q-5 21 -7 36.5t-3 27.5q-3 -12 -6.5 -23.5t-15.5 -41.5l-112 -284h209z" />
    <glyph glyph-name="Oslash" unicode="&#xd8;" horiz-adv-x="610" 
d="M305 -10q-51 0 -92.5 18t-70.5 50l-53 -82l-30 19l59 92q-31 46 -46.5 112t-15.5 145q0 159 61 256.5t188 97.5q51 0 90.5 -17t69.5 -49l53 84l30 -19l-59 -93q33 -47 49 -114t16 -146q0 -159 -60.5 -256.5t-188.5 -97.5zM305 642q-87 0 -124.5 -85t-37.5 -210
q0 -51 6.5 -95.5t21.5 -81.5l253 397q-20 37 -48.5 56t-70.5 19zM438 523l-253 -396q20 -35 49 -54.5t71 -19.5q90 0 126 83.5t36 210.5q0 52 -6.5 94.5t-22.5 81.5z" />
    <glyph glyph-name="infinity" unicode="&#x221e;" horiz-adv-x="855" 
d="M620 172q-59 0 -100.5 27t-93.5 95q-51 -67 -92 -94.5t-98 -27.5q-71 0 -117.5 47.5t-46.5 119.5q0 71 46 119t118 48q55 0 95.5 -26.5t96.5 -94.5q56 69 93.5 95t97.5 26q72 0 118 -48t46 -119t-46 -119t-117 -48zM619 447q-44 0 -74 -21t-79 -85q84 -108 153 -108
q46 0 76.5 30.5t30.5 76.5q0 45 -31 76t-76 31zM236 445q-46 0 -77 -30t-31 -77q0 -45 31 -76t77 -31q42 0 74.5 23.5t79.5 83.5q-91 107 -154 107z" />
    <glyph glyph-name="plusminus" unicode="&#xb1;" 
d="M294 364v-173h-61v173h-161v58h161v171h61v-171h162v-58h-162zM72 71v58h384v-58h-384z" />
    <glyph glyph-name="lessequal" unicode="&#x2264;" 
d="M72 374v53l384 147v-61l-312 -113l312 -113v-60zM72 105v56h384v-56h-384z" />
    <glyph glyph-name="greaterequal" unicode="&#x2265;" 
d="M72 227v60l312 113l-312 113v61l384 -147v-53zM72 105v56l384 -1v-55h-384z" />
    <glyph glyph-name="yen" unicode="&#xa5;" 
d="M373 440l108 7v-45l-122 9l-50 -101l172 7v-46l-174 10v-281h-85v281l-176 -10v46l174 -7l-50 101l-124 -9v45l110 -7l-122 248h93l139 -319l146 319h82z" />
    <glyph glyph-name="mu" unicode="&#xb5;" horiz-adv-x="533" 
d="M286 -7q-33 0 -65 8.5t-62 25.5v-242h-88v754h88v-461q50 -28 109 -28q37 0 60.5 5t45.5 17v467h88v-506q-38 -21 -77 -30.5t-99 -9.5z" />
    <glyph glyph-name="partialdiff" unicode="&#x2202;" 
d="M218 -9q-80 0 -124 48t-44 123q0 104 68 177t175 73q47 0 92 -14q-11 91 -70 153t-132 85l25 58q103 -29 184.5 -119t81.5 -242q0 -142 -63 -242t-193 -100zM133 171q0 -57 23.5 -88.5t71.5 -31.5q81 0 122 83.5t41 215.5q-43 13 -83 13q-81 0 -128 -54.5t-47 -137.5z
" />
    <glyph glyph-name="summation" unicode="&#x3a3;" 
d="M54 -215l240 487l-239 416h416v-63h-284l200 -340l-211 -427l304 -1v-72h-426z" />
    <glyph glyph-name="product" unicode="&#x220f;" horiz-adv-x="825" 
d="M412 -10q-147 0 -250 103t-103 250t103.5 250.5t249.5 103.5q147 0 250.5 -103.5t103.5 -250.5q0 -146 -103.5 -249.5t-250.5 -103.5zM412 654q-128 0 -219 -91t-91 -220q0 -128 91 -219t219 -91q129 0 220 91t91 219t-90.5 219.5t-220.5 91.5zM364 314v-190h-48v423
q39 21 101 21q57 0 98 -32t41 -98q0 -61 -41 -94t-112 -33q-18 0 -39 3zM411 529q-24 0 -47 -9v-168q11 -1 19 -1.5t13 -0.5q52 0 81.5 22.5t29.5 66.5q0 49 -28 69.5t-68 20.5z" />
    <glyph glyph-name="pi" unicode="&#x3c0;" horiz-adv-x="644" 
d="M429 149v333h-215v-482h-88v482h-72v57h534v-57h-71v-331q0 -45 12.5 -69t58.5 -24v-58q-102 0 -130.5 41.5t-28.5 107.5z" />
    <glyph glyph-name="integral" unicode="&#x222b;" 
d="M318 625v-669q0 -79 -52.5 -125t-141.5 -46v58q45 0 76.5 24t31.5 77v669q0 80 51.5 125.5t140.5 45.5v-57q-45 0 -75.5 -24t-30.5 -78z" />
    <glyph glyph-name="ordfeminine" unicode="&#xaa;" horiz-adv-x="353" 
d="M182 350q-70 0 -104.5 26.5t-34.5 73.5q0 63 52 88.5t147 34.5v19q0 35 -19 48.5t-56 13.5q-21 0 -43 -5.5t-41 -14.5l-15 37q19 10 47.5 17t60.5 7q57 0 91 -25t34 -83v-212q-21 -11 -51.5 -18t-67.5 -7zM242 539q-76 -9 -108.5 -26t-32.5 -63q0 -34 22 -48.5t63 -14.5
q34 0 56 10v142z" />
    <glyph glyph-name="ordmasculine" unicode="&#xba;" horiz-adv-x="353" 
d="M177 351q-71 0 -106.5 48t-35.5 125q0 79 35 126t106 47q72 0 107 -47.5t35 -125.5t-35 -125.5t-106 -47.5zM177 658q-45 0 -62 -36.5t-17 -96.5q0 -59 17 -94.5t62 -35.5q44 0 61 35.5t17 93.5q0 61 -16.5 97.5t-61.5 36.5z" />
    <glyph glyph-name="Omega" unicode="&#x3a9;" horiz-adv-x="650" 
d="M365 0q62 66 97 169.5t35 213.5q0 117 -40.5 185.5t-131.5 68.5q-90 0 -131 -69.5t-41 -184.5q0 -110 35.5 -213t96.5 -170h-239v62h133q-48 58 -82 147.5t-34 175.5q0 144 67 228.5t195 84.5t195.5 -84.5t67.5 -228.5q0 -83 -33.5 -173t-81.5 -150h131v-62h-239z" />
    <glyph glyph-name="ae" unicode="&#xe6;" horiz-adv-x="804" 
d="M417 235q0 -91 45.5 -136.5t117.5 -45.5q42 0 75.5 8t56.5 21l23 -55q-27 -16 -68.5 -26.5t-94.5 -10.5q-57 0 -104 26t-75 73q-45 -99 -161 -99q-95 0 -141.5 41.5t-46.5 116.5q0 96 80.5 142.5t219.5 59.5v34q0 57 -34.5 82.5t-90.5 25.5q-31 0 -64 -10t-58 -23l-20 52
q28 16 68.5 27t90.5 11q56 0 95.5 -22.5t59.5 -74.5q25 49 68 73t91 24q99 0 151.5 -65.5t52.5 -198.5zM546 492q-60 0 -96.5 -51.5t-36.5 -156.5l257 38q0 89 -32 129.5t-92 40.5zM344 303q-116 -14 -168 -45.5t-52 -108.5q0 -55 29 -81t83 -26q46 0 77 28t31 76v157z" />
    <glyph glyph-name="oslash" unicode="&#xf8;" horiz-adv-x="523" 
d="M262 -10q-73 0 -123 41l-45 -78l-26 16l48 83q-33 37 -49.5 92.5t-16.5 124.5q0 128 52.5 204t158.5 76q72 0 120 -39l44 76l26 -16l-46 -80q34 -37 51 -93.5t17 -127.5q0 -127 -52.5 -203t-158.5 -76zM262 501q-72 0 -101 -66.5t-29 -164.5q0 -44 5.5 -80.5t19.5 -66.5
l193 332q-15 22 -37.5 34t-50.5 12zM366 422l-192 -332q15 -21 37 -32.5t51 -11.5q72 0 100.5 63t28.5 161q0 45 -5.5 82.5t-19.5 69.5z" />
    <glyph glyph-name="questiondown" unicode="&#xbf;" horiz-adv-x="394" 
d="M230 363q-24 0 -41 17t-17 40q0 24 17 41t41 17q23 0 40 -17t17 -41q0 -23 -17 -40t-40 -17zM236 -222q-90 0 -142 43t-52 118q0 61 45.5 104t98.5 59l11 146h66l14 -174q-56 -13 -99.5 -45.5t-43.5 -83.5q0 -47 29.5 -75.5t87.5 -28.5q33 0 57.5 7t46.5 19l25 -52
q-25 -16 -63 -26.5t-81 -10.5z" />
    <glyph glyph-name="exclamdown" unicode="&#xa1;" horiz-adv-x="290" 
d="M156 363q-23 0 -40 16t-17 41q0 24 17 41t40 17q24 0 41 -17t17 -41q0 -23 -17 -40t-41 -17zM104 -215l19 462h66l19 -462h-104z" />
    <glyph glyph-name="logicalnot" unicode="&#xac;" 
d="M393 146v160h-321v60h384v-220h-63z" />
    <glyph glyph-name="radical" unicode="&#x221a;" 
d="M323 0h-80l-137 452l-80 1v48h152l102 -394l142 678h77z" />
    <glyph glyph-name="florin" unicode="&#x192;" horiz-adv-x="563" 
d="M506 628q-24 8 -50 8q-48 0 -68 -41t-35 -111l-15 -73h111v-53h-122l-67 -357q-18 -93 -61.5 -158t-123.5 -65q-21 0 -34 2.5t-30 9.5l11 62q21 -8 40 -8q47 0 72 41.5t43 136.5l63 336h-109v53h120l15 77q20 105 56.5 157t119.5 52q22 0 42 -3.5t34 -9.5z" />
    <glyph glyph-name="approxequal" unicode="&#x2248;" 
d="M348 358q-26 0 -85.5 33t-89.5 33q-33 0 -57 -12t-44 -32v59q16 18 41.5 31t59.5 13t89 -32.5t85 -32.5q35 0 62.5 13.5t46.5 35.5v-59q-17 -22 -42.5 -36t-65.5 -14zM348 178q-26 0 -86 32.5t-89 32.5q-33 0 -57 -12t-44 -32v59q17 19 41.5 32t59.5 13q33 0 88 -33
t86 -33q35 0 62 13.5t47 35.5v-59q-16 -21 -42.5 -35t-65.5 -14z" />
    <glyph glyph-name="Delta" unicode="&#x2206;" horiz-adv-x="575" 
d="M14 0l233 688h83l231 -688h-547zM307 522q-4 14 -10.5 40t-9.5 35l-24 -75l-147 -464h335z" />
    <glyph glyph-name="guillemotleft" unicode="&#xab;" horiz-adv-x="514" 
d="M395 116l-151 218l151 218l47 -31l-128 -187l128 -187zM211 116l-151 218l151 218l47 -31l-128 -187l128 -187z" />
    <glyph glyph-name="guillemotright" unicode="&#xbb;" horiz-adv-x="514" 
d="M304 116l-47 31l127 187l-127 187l47 31l150 -218zM120 116l-48 31l128 187l-128 187l48 31l151 -218z" />
    <glyph glyph-name="ellipsis" unicode="&#x2026;" horiz-adv-x="838" 
d="M698 -4q-24 0 -41 16t-17 41q0 24 17 41t41 17t41 -17t17 -41q0 -23 -17 -40t-41 -17zM419 -4q-24 0 -41 16t-17 41q0 24 17 41t41 17q23 0 40 -17t17 -41t-16.5 -40.5t-40.5 -16.5zM140 -4q-24 0 -41 16t-17 41q0 24 17 41t41 17q23 0 40 -17t17 -41q0 -23 -17 -40
t-40 -17z" />
    <glyph glyph-name="nonbreakingspace" unicode="&#xa0;" horiz-adv-x="276" 
 />
    <glyph glyph-name="Agrave" unicode="&#xc0;" horiz-adv-x="585" 
d="M271 740l-114 136q3 9 12.5 13t24.5 4q31 0 56 -16l71 -137h-50zM471 0l-65 206h-236l-67 -206h-84l233 688h82l232 -688h-95zM311 522q-13 40 -15.5 57.5t-4.5 23.5q-3 -11 -7 -26.5t-16 -54.5l-82 -261h205z" />
    <glyph glyph-name="Atilde" unicode="&#xc3;" horiz-adv-x="585" 
d="M365 754q-4 -1 -12 -1q-22 0 -65 19t-63 19q-21 0 -32 -16.5t-16 -27.5l-26 40q11 27 27 41t49 14q27 0 65 -21t61 -18q22 3 33.5 14.5t18.5 29.5l28 -41q-7 -21 -22.5 -34.5t-45.5 -17.5zM471 0l-65 206h-236l-67 -206h-84l233 688h82l232 -688h-95zM311 522
q-13 40 -15.5 57.5t-4.5 23.5q-3 -11 -7 -26.5t-16 -54.5l-82 -261h205z" />
    <glyph glyph-name="Otilde" unicode="&#xd5;" horiz-adv-x="605" 
d="M372 754q-4 -1 -12 -1q-21 0 -64 19t-63 19q-19 0 -30.5 -13t-17.5 -31l-26 40q10 25 26.5 40t48.5 15q22 0 65 -20.5t62 -18.5q22 3 33.5 14.5t18.5 29.5l28 -41q-8 -21 -24 -34.5t-45 -17.5zM303 -10q-127 0 -188 98t-61 256t61 256t188 98q126 0 187 -98t61 -256
q0 -159 -60.5 -256.5t-187.5 -97.5zM303 637q-86 0 -121 -83t-35 -207q0 -127 33.5 -208t122.5 -81q88 0 121.5 81.5t33.5 207.5q0 125 -34.5 207.5t-120.5 82.5z" />
    <glyph glyph-name="OE" unicode="&#x152;" horiz-adv-x="761" 
d="M411 0q-13 -4 -34 -7t-48 -3q-136 0 -205.5 97.5t-69.5 256.5q0 160 68.5 257t205.5 97q23 0 44 -2.5t39 -7.5h305v-62h-227v-240h205v-61h-205v-262h227v-63h-305zM403 632q-31 9 -72 9q-103 0 -143 -88t-40 -208t40 -207t143 -87q22 0 41 2t31 5v574z" />
    <glyph glyph-name="oe" unicode="&#x153;" horiz-adv-x="842" 
d="M457 243q10 -113 56.5 -152t108.5 -39q45 0 73 8t56 23l23 -56q-30 -18 -66 -27.5t-96 -9.5q-63 0 -111 29.5t-78 93.5q-46 -123 -163 -123q-104 0 -157 77t-53 202q0 126 53 203t157 77q106 0 161 -111q27 56 71 83.5t96 27.5q101 0 152.5 -64.5t51.5 -203.5zM585 496
q-61 0 -96.5 -51t-35.5 -155l254 29q0 90 -32 133.5t-90 43.5zM260 493q-73 0 -98.5 -65.5t-25.5 -157.5q0 -119 34 -169.5t90 -50.5q73 0 97.5 64t24.5 156q0 95 -24 159t-98 64z" />
    <glyph glyph-name="endash" unicode="&#x2013;" horiz-adv-x="400" 
d="M0 305v61h400v-61h-400z" />
    <glyph glyph-name="emdash" unicode="&#x2014;" horiz-adv-x="800" 
d="M0 309v52h800v-52h-800z" />
    <glyph glyph-name="quotedblleft" unicode="&#x201c;" horiz-adv-x="439" 
d="M319 538q-8 -10 -22 -17.5t-33 -7.5q-15 0 -23.5 7.5t-10.5 17.5l123 247h46zM144 538q-8 -11 -21.5 -18t-33.5 -7q-15 0 -23 7t-11 18l123 247h46z" />
    <glyph glyph-name="quotedblright" unicode="&#x201d;" horiz-adv-x="439" 
d="M260 517h-45l80 247q9 12 21.5 18.5t33.5 6.5q12 0 21 -5.5t13 -19.5zM86 517h-46l80 247q9 12 21.5 18.5t33.5 6.5q12 0 21 -5.5t13 -19.5z" />
    <glyph glyph-name="quoteleft" unicode="&#x2018;" horiz-adv-x="264" 
d="M144 538q-8 -11 -21.5 -18t-33.5 -7q-15 0 -23 7t-11 18l123 247h46z" />
    <glyph glyph-name="quoteright" unicode="&#x2019;" horiz-adv-x="264" 
d="M86 517h-46l80 247q9 12 21.5 18.5t33.5 6.5q12 0 21 -5.5t13 -19.5z" />
    <glyph glyph-name="divide" unicode="&#xf7;" 
d="M264 442q-21 0 -35.5 14.5t-14.5 35.5t14 35t36 14q21 0 35 -14t14 -35t-14.5 -35.5t-34.5 -14.5zM72 307v52h384v-52h-384zM264 124q-21 0 -35.5 14.5t-14.5 35.5t14 35t36 14q21 0 35 -14t14 -35t-14.5 -35.5t-34.5 -14.5z" />
    <glyph glyph-name="lozenge" unicode="&#x25ca;" horiz-adv-x="641" 
d="M320 4l-270 340l270 340l271 -340zM314 588l-186 -236l200 -252l186 235z" />
    <glyph glyph-name="ydieresis" unicode="&#xff;" horiz-adv-x="488" 
d="M332 617q-19 0 -32 12t-13 30t13.5 30.5t31.5 12.5q19 0 32 -12t13 -31q0 -18 -13 -30t-32 -12zM167 617q-19 0 -32 12t-13 30t13.5 30.5t31.5 12.5q19 0 32.5 -12.5t13.5 -30.5t-13 -30t-33 -12zM213 -215h-93l89 215l-180 539h94l126 -436l131 436h82z" />
    <glyph glyph-name="Ydieresis" unicode="&#x178;" horiz-adv-x="500" 
d="M336 757q-19 0 -32 12t-13 31q0 18 13.5 30.5t31.5 12.5q19 0 32.5 -12.5t13.5 -30.5t-13.5 -30.5t-32.5 -12.5zM172 757q-19 0 -32.5 12.5t-13.5 30.5t13.5 30.5t32.5 12.5q18 0 31.5 -12.5t13.5 -30.5t-13.5 -30.5t-31.5 -12.5zM296 305v-305h-92v305l-187 383h100
l137 -311l144 311h87z" />
    <glyph glyph-name="fraction" unicode="&#x2215;" horiz-adv-x="160" 
d="M-60 -15l-52 23l331 694l53 -22z" />
    <glyph glyph-name="currency" unicode="&#xa4;" 
d="M448 122l-72 72q-49 -38 -112 -38t-112 38l-72 -72l-35 35l72 72q-38 49 -38 112t38 112l-72 72l35 35l72 -72q49 38 112 38t112 -38l72 72l35 -35l-72 -72q38 -49 38 -112t-38 -112l72 -72zM264 469q-54 0 -91 -37t-37 -91q0 -53 37 -91t91 -38q53 0 90.5 37.5
t37.5 91.5t-37 91t-91 37z" />
    <glyph glyph-name="guilsinglleft" unicode="&#x2039;" horiz-adv-x="330" 
d="M211 116l-151 218l151 218l47 -31l-128 -187l128 -187z" />
    <glyph glyph-name="guilsinglright" unicode="&#x203a;" horiz-adv-x="330" 
d="M119 116l-47 31l127 187l-127 187l47 31l151 -218z" />
    <glyph glyph-name="fi" unicode="&#xf001;" horiz-adv-x="527" 
d="M406 644q-22 0 -36.5 13.5t-14.5 33.5q0 19 15 33t36 14t35.5 -13.5t14.5 -33.5t-14.5 -33.5t-35.5 -13.5zM362 0v539h88v-539h-88zM189 484v-484h-88v484h-61v55h61v76q0 81 46.5 125.5t135.5 44.5v-56q-42 0 -68 -25t-26 -79v-86h94v-55h-94z" />
    <glyph glyph-name="fl" unicode="&#xf002;" horiz-adv-x="533" 
d="M368 0v785h88v-785h-88zM189 484v-484h-88v484h-61v55h61v76q0 81 46.5 125.5t135.5 44.5v-56q-42 0 -68 -25t-26 -79v-86h94v-55h-94z" />
    <glyph glyph-name="daggerdbl" unicode="&#x2021;" horiz-adv-x="553" 
d="M311 60l9 -275h-87l8 275l-191 -6v76l191 -7l-2 172l2 179l-191 -7v76l191 -7l-8 249h87l-9 -249l192 7v-76l-191 7l1 -178l-1 -173l191 7v-76z" />
    <glyph glyph-name="periodcentered" unicode="&#x2219;" horiz-adv-x="243" 
d="M122 286q-25 0 -42 17t-17 41t17 41t42 17q24 0 41 -17t17 -41t-17 -41t-41 -17z" />
    <glyph glyph-name="quotesinglbase" unicode="&#x201a;" horiz-adv-x="264" 
d="M86 -169h-46l80 247q8 11 21.5 18t33.5 7q15 0 23 -7t11 -18z" />
    <glyph glyph-name="quotedblbase" unicode="&#x201e;" horiz-adv-x="439" 
d="M260 -169h-45l80 247q8 11 21.5 18t33.5 7q15 0 23 -7t11 -18zM86 -169h-46l80 247q8 11 21.5 18t33.5 7q15 0 23 -7t11 -18z" />
    <glyph glyph-name="perthousand" unicode="&#x2030;" horiz-adv-x="1196" 
d="M992 -11q-76 0 -105.5 68t-29.5 168q0 99 29 166.5t106 67.5q75 0 105 -68t30 -166q0 -100 -29.5 -168t-105.5 -68zM651 -11q-76 0 -105.5 68t-29.5 168q0 99 29 166.5t106 67.5q74 0 104 -68.5t30 -165.5q0 -99 -29 -167.5t-105 -68.5zM332 -8l-46 14l234 689l46 -13z
M204 229q-77 0 -106 67.5t-29 167.5q0 99 29 167t106 68q75 0 104.5 -68.5t29.5 -166.5q0 -99 -29 -167t-105 -68zM992 420q-45 0 -60 -55.5t-15 -138.5q0 -84 14 -138t61 -54q45 0 59.5 56t14.5 136q0 109 -19.5 151.5t-54.5 42.5zM651 420q-45 0 -60 -55.5t-15 -138.5
t14 -137t61 -54q45 0 59.5 55t14.5 136q0 109 -19.5 151.5t-54.5 42.5zM204 660q-46 0 -60.5 -55.5t-14.5 -139.5q0 -85 14 -138t61 -53q45 0 59.5 55t14.5 136q0 110 -19.5 152.5t-54.5 42.5z" />
    <glyph glyph-name="Acircumflex" unicode="&#xc2;" horiz-adv-x="585" 
d="M400 739l-106 79l-108 -79l-25 21l99 101q14 15 33 15t34 -15l99 -101zM471 0l-65 206h-236l-67 -206h-84l233 688h82l232 -688h-95zM311 522q-13 40 -15.5 57.5t-4.5 23.5q-3 -11 -7 -26.5t-16 -54.5l-82 -261h205z" />
    <glyph glyph-name="Ecircumflex" unicode="&#xca;" horiz-adv-x="441" 
d="M338 739l-107 79l-107 -79l-25 21l98 101q15 15 33 15q20 0 35 -15l98 -101zM77 0v688h319v-62h-227v-240h204v-61h-204v-263h227v-62h-319z" />
    <glyph glyph-name="Aacute" unicode="&#xc1;" horiz-adv-x="585" 
d="M305 740h-50l70 137q28 17 57 17q31 0 37 -18zM471 0l-65 206h-236l-67 -206h-84l233 688h82l232 -688h-95zM311 522q-13 40 -15.5 57.5t-4.5 23.5q-3 -11 -7 -26.5t-16 -54.5l-82 -261h205z" />
    <glyph glyph-name="Edieresis" unicode="&#xcb;" horiz-adv-x="441" 
d="M315 757q-19 0 -32.5 12.5t-13.5 30.5t13.5 30.5t32.5 12.5q18 0 31.5 -12.5t13.5 -30.5t-13.5 -30.5t-31.5 -12.5zM150 757q-19 0 -32 12t-13 31q0 18 13.5 30.5t31.5 12.5q19 0 32.5 -12.5t13.5 -30.5t-13.5 -30.5t-32.5 -12.5zM77 0v688h319v-62h-227v-240h204v-61
h-204v-263h227v-62h-319z" />
    <glyph glyph-name="Egrave" unicode="&#xc8;" horiz-adv-x="441" 
d="M230 740l-114 136q7 17 38 17t56 -16l70 -137h-50zM77 0v688h319v-62h-227v-240h204v-61h-204v-263h227v-62h-319z" />
    <glyph glyph-name="Iacute" unicode="&#xcd;" horiz-adv-x="253" 
d="M123 740h-49l70 137q28 17 57 17q31 0 37 -18zM80 0v688h92v-688h-92z" />
    <glyph glyph-name="Icircumflex" unicode="&#xce;" horiz-adv-x="253" 
d="M233 739l-106 79l-108 -79l-25 21l99 101q14 15 33 15t34 -15l98 -101zM80 0v688h92v-688h-92z" />
    <glyph glyph-name="Idieresis" unicode="&#xcf;" horiz-adv-x="253" 
d="M209 757q-19 0 -32.5 12.5t-13.5 30.5t13.5 30.5t32.5 12.5q18 0 31.5 -12.5t13.5 -30.5t-13.5 -30.5t-31.5 -12.5zM44 757q-19 0 -32 12t-13 31q0 18 13.5 30.5t31.5 12.5q19 0 32 -12t13 -31q0 -18 -13.5 -30.5t-31.5 -12.5zM80 0v688h92v-688h-92z" />
    <glyph glyph-name="Igrave" unicode="&#xcc;" horiz-adv-x="253" 
d="M129 740l-114 136q7 17 38 17t56 -16l70 -137h-50zM81 0v688h92v-688h-92z" />
    <glyph glyph-name="Oacute" unicode="&#xd3;" horiz-adv-x="605" 
d="M301 740h-50l70 137q28 17 58 17t36 -18zM303 -10q-127 0 -188 98t-61 256t61 256t188 98q126 0 187 -98t61 -256q0 -159 -60.5 -256.5t-187.5 -97.5zM303 637q-86 0 -121 -83t-35 -207q0 -127 33.5 -208t122.5 -81q88 0 121.5 81.5t33.5 207.5q0 125 -34.5 207.5
t-120.5 82.5z" />
    <glyph glyph-name="Ocircumflex" unicode="&#xd4;" horiz-adv-x="605" 
d="M410 739l-107 79l-107 -79l-25 21l98 101q15 15 33 15q20 0 35 -15l98 -101zM303 -10q-127 0 -188 98t-61 256t61 256t188 98q126 0 187 -98t61 -256q0 -159 -60.5 -256.5t-187.5 -97.5zM303 637q-86 0 -121 -83t-35 -207q0 -127 33.5 -208t122.5 -81q88 0 121.5 81.5
t33.5 207.5q0 125 -34.5 207.5t-120.5 82.5z" />
    <glyph glyph-name="Ograve" unicode="&#xd2;" horiz-adv-x="605" 
d="M299 740l-114 136q7 17 38 17q20 0 31 -3.5t25 -12.5l70 -137h-50zM303 -10q-127 0 -188 98t-61 256t61 256t188 98q126 0 187 -98t61 -256q0 -159 -60.5 -256.5t-187.5 -97.5zM303 637q-86 0 -121 -83t-35 -207q0 -127 33.5 -208t122.5 -81q88 0 121.5 81.5t33.5 207.5
q0 125 -34.5 207.5t-120.5 82.5z" />
    <glyph glyph-name="Uacute" unicode="&#xda;" horiz-adv-x="583" 
d="M293 740h-49l70 137q28 17 57 17q31 0 37 -18zM291 -11q-97 0 -155.5 58.5t-58.5 148.5v492h92v-491q0 -63 36.5 -99.5t90.5 -36.5q53 0 89.5 36.5t36.5 99.5v491h84v-492q0 -89 -59 -148t-156 -59z" />
    <glyph glyph-name="Ucircumflex" unicode="&#xdb;" horiz-adv-x="583" 
d="M401 739l-107 79l-107 -79l-25 21l98 101q15 15 33 15q20 0 35 -15l98 -101zM291 -11q-97 0 -155.5 58.5t-58.5 148.5v492h92v-491q0 -63 36.5 -99.5t90.5 -36.5q53 0 89.5 36.5t36.5 99.5v491h84v-492q0 -89 -59 -148t-156 -59z" />
    <glyph glyph-name="Ugrave" unicode="&#xd9;" horiz-adv-x="583" 
d="M303 740l-114 136q7 17 38 17t56 -16l70 -137h-50zM291 -11q-97 0 -155.5 58.5t-58.5 148.5v492h92v-491q0 -63 36.5 -99.5t90.5 -36.5q53 0 89.5 36.5t36.5 99.5v491h84v-492q0 -89 -59 -148t-156 -59z" />
    <glyph glyph-name="dotlessi" unicode="&#x131;" horiz-adv-x="229" 
d="M71 0v539h87v-539h-87z" />
    <glyph glyph-name="circumflex" unicode="&#x302;" horiz-adv-x="196" 
d="M205 597l-107 79l-107 -79l-25 22l98 100q15 15 34 15t34 -15l98 -100z" />
    <glyph glyph-name="tilde" unicode="&#x303;" horiz-adv-x="196" 
d="M171 612q-4 -1 -12 -1q-20 0 -63 20.5t-61 18.5q-21 -2 -33 -14.5t-19 -29.5l-26 40q15 33 32 43.5t43 10.5t65 -19.5t58 -19.5q23 0 36 13t20 31l28 -40q-8 -22 -23.5 -35.5t-44.5 -17.5z" />
    <glyph glyph-name="macron" unicode="&#x2c9;" horiz-adv-x="196" 
d="M-44 629v51h284v-51h-284z" />
    <glyph glyph-name="breve" unicode="&#x2d8;" horiz-adv-x="196" 
d="M98 598q-64 0 -96.5 38t-32.5 81l31 11q17 -79 97 -79q79 0 100 79l30 -11q0 -43 -32.5 -81t-96.5 -38z" />
    <glyph glyph-name="dotaccent" unicode="&#x2d9;" horiz-adv-x="196" 
d="M98 642q-20 0 -34 14t-14 35q0 20 14 34t34 14t34 -14t14 -34t-13.5 -34.5t-34.5 -14.5z" />
    <glyph glyph-name="ring" unicode="&#x2da;" horiz-adv-x="196" 
d="M98 596q-34 0 -57.5 23.5t-23.5 57.5q0 33 23.5 56.5t57.5 23.5q33 0 56.5 -23.5t23.5 -56.5q0 -34 -23.5 -57.5t-56.5 -23.5zM98 724q-20 0 -33.5 -13.5t-13.5 -33.5t13.5 -33.5t33.5 -13.5t33 13t13 34q0 19 -13 33t-33 14z" />
    <glyph glyph-name="cedilla" unicode="&#xb8;" horiz-adv-x="196" 
d="M-30 -196l20 34q86 0 128 6.5t42 30.5q0 21 -27 26.5t-100 5.5l20 31q30 3 54 3q63 0 91 -17.5t28 -47.5q0 -43 -62 -57.5t-194 -14.5z" />
    <glyph glyph-name="hungarumlaut" unicode="&#x2ba;" horiz-adv-x="196" 
d="M137 597h-40l85 127q10 8 21.5 12.5t28.5 4.5q26 0 26 -16zM6 597h-40l85 127q10 8 21.5 12.5t28.5 4.5q26 0 26 -16z" />
    <glyph glyph-name="ogonek" unicode="&#x2db;" horiz-adv-x="196" 
d="M51 -120q0 37 21.5 64t85.5 61h62q-62 -35 -82.5 -58t-20.5 -51q0 -12 13.5 -20t35.5 -8q32 0 68 14l9 -33q-55 -23 -106 -23q-40 0 -63 13.5t-23 40.5z" />
    <glyph glyph-name="caron" unicode="&#x2c7;" horiz-adv-x="196" 
d="M132 613q-15 -15 -34 -15t-34 15l-99 101l25 21l108 -80l108 80l25 -21z" />
    <glyph glyph-name="Lslash" horiz-adv-x="419" 
d="M92 0v412l-63 -32v50l63 32v226h92v-192l73 37v-49l-73 -37v-385h206v-62h-298z" />
    <glyph glyph-name="lslash" horiz-adv-x="293" 
d="M190 447v-447h-88v415l-69 -38v53l69 36v319h88v-287l73 37v-50z" />
    <glyph glyph-name="Scaron" horiz-adv-x="465" 
d="M266 755q-15 -15 -35 -15q-19 0 -33 15l-99 100l25 21l108 -79l108 79l25 -21zM203 -10q-57 0 -93.5 9.5t-66.5 28.5l24 64q23 -14 52.5 -23t67.5 -9q59 0 94 35t35 94q0 46 -27 76t-100 59t-106 76.5t-33 104.5q0 80 53.5 136.5t140.5 56.5q47 0 81.5 -9.5t59.5 -27.5
l-22 -58q-23 14 -49.5 23t-59.5 9q-54 0 -84 -33t-30 -88q0 -48 30 -76t103 -57t105.5 -79t32.5 -108q0 -90 -58 -147t-150 -57z" />
    <glyph glyph-name="scaron" horiz-adv-x="404" 
d="M236 613q-15 -15 -35 -15q-18 0 -33 15l-99 101l25 21l108 -80l108 80l25 -21zM176 -8q-44 0 -79.5 10t-58.5 27l24 58q16 -14 43.5 -23t61.5 -9q44 0 72 27t28 66q0 40 -21 62.5t-80.5 45t-86.5 60.5t-27 86q0 63 44.5 105.5t116.5 42.5q39 0 70 -10t56 -27l-23 -53
q-15 11 -39 20.5t-51 9.5q-43 0 -66.5 -24.5t-23.5 -60.5t23 -58t82 -44.5t87.5 -61t28.5 -91.5q0 -64 -50.5 -111t-130.5 -47z" />
    <glyph glyph-name="Zcaron" horiz-adv-x="433" 
d="M248 755q-15 -15 -34 -15t-34 15l-99 100l25 21l109 -79l107 79l25 -21zM24 0l253 626h-237v62h353l-250 -626h257v-62h-376z" />
    <glyph glyph-name="zcaron" horiz-adv-x="417" 
d="M239 613q-15 -15 -34 -15t-34 15l-99 101l25 21l109 -80l107 80l25 -21zM30 0l227 484h-210v55h322l-222 -484h230v-55h-347z" />
    <glyph glyph-name="brokenbar" horiz-adv-x="228" 
d="M78 390v395h72v-395h-72zM78 -215v395h72v-395h-72z" />
    <glyph glyph-name="Eth" horiz-adv-x="622" 
d="M285 -10q-61 0 -107 10t-75 28v319h-61v50h61v263q69 38 178 38q141 0 214 -91.5t73 -255.5q0 -166 -70.5 -263.5t-212.5 -97.5zM278 639q-52 0 -85 -13v-229h115v-50h-115v-280q14 -5 38 -9t49 -4q101 0 147 74.5t46 223.5q0 287 -195 287z" />
    <glyph glyph-name="glyph233" horiz-adv-x="521" 
d="M262 -12q-101 0 -156.5 74t-55.5 203q0 116 51 196.5t158 80.5q36 0 71 -10q-35 84 -71 143l-90 -27q-2 4 -10.5 17.5t-12.5 17.5l89 28q-13 19 -24 32.5t-23 26.5l73 23q15 -17 23.5 -27t23.5 -31l78 24l24 -35l-79 -25q63 -100 100 -210.5t37 -222.5q0 -128 -50.5 -203
t-155.5 -75zM344 481q-33 10 -70 10q-75 0 -105.5 -61t-30.5 -164q0 -97 28.5 -157t96.5 -60q67 0 92 60.5t25 159.5q0 53 -10 112t-26 100z" />
    <glyph glyph-name="Yacute" horiz-adv-x="500" 
d="M261 740h-50l70 137q28 17 57 17q31 0 37 -18zM296 305v-305h-92v305l-187 383h100l137 -311l144 311h87z" />
    <glyph glyph-name="yacute" horiz-adv-x="488" 
d="M257 598h-49l70 137q28 17 57 17q31 0 37 -18zM213 -215h-93l89 215l-180 539h94l126 -436l131 436h82z" />
    <glyph glyph-name="Thorn" 
d="M199 163l-31 2v-165h-91v688h91v-122q19 5 40 9t41 4q113 0 172 -58.5t59 -153.5q0 -94 -70 -149t-211 -55zM242 526q-18 0 -37 -3t-37 -8v-293l28 -3q9 -1 20 -1.5t16 -0.5q79 0 119 41t40 105q0 79 -40 121t-109 42z" />
    <glyph glyph-name="thorn" 
d="M241 -7q-40 0 -82 12v-220h-88v1000h87v-262q19 10 46 17t50 7q106 0 165 -71t59 -196q0 -134 -66.5 -210.5t-170.5 -76.5zM237 495q-44 0 -78 -19v-420q17 -4 32.5 -7t32.5 -3q88 0 127.5 63.5t39.5 162.5q0 105 -37 164t-117 59z" />
    <glyph glyph-name="minus" 
d="M72 303v60h384v-60h-384z" />
    <glyph glyph-name="multiply" 
d="M419 118l-155 172l-154 -171l-42 40l156 174l-157 175l42 40l155 -172l154 172l42 -40l-156 -175l157 -175z" />
    <glyph glyph-name="onesuperior" horiz-adv-x="368" 
d="M186 271v336q-55 -19 -106 -19l-6 35q51 6 83.5 23.5t48.5 41.5h44v-417h-64z" />
    <glyph glyph-name="twosuperior" horiz-adv-x="368" 
d="M48 271l152 210q21 30 29.5 50.5t8.5 41.5q0 31 -21 50.5t-61 19.5q-38 0 -70 -16l-19 43q21 11 49 17.5t58 6.5q60 0 95.5 -31.5t35.5 -83.5q0 -25 -12.5 -53.5t-40.5 -64.5l-105 -136h161v-54h-260z" />
    <glyph glyph-name="threesuperior" horiz-adv-x="368" 
d="M163 264q-66 0 -110 25l18 45q36 -19 82 -19q40 0 62.5 20.5t22.5 57.5q0 48 -34.5 65t-82.5 17v40q48 0 75.5 21.5t27.5 53.5q0 30 -18 43.5t-49 13.5q-38 0 -72 -17l-18 41q23 13 46.5 18.5t54.5 5.5q51 0 85.5 -26t34.5 -72q0 -34 -20 -56.5t-48 -35.5
q37 -13 61 -39.5t24 -72.5q0 -58 -40.5 -93.5t-101.5 -35.5z" />
    <glyph glyph-name="onehalf" horiz-adv-x="799" 
d="M465 0l152 207q23 31 30 51.5t7 43.5q0 72 -82 72q-14 0 -30 -3.5t-36 -14.5l-18 43q25 14 49.5 19.5t52.5 5.5q60 0 95.5 -32.5t35.5 -84.5q0 -27 -11.5 -55t-40.5 -65l-106 -133h160v-54h-258zM236 -15l-53 23l331 694l53 -22zM161 271v336q-26 -9 -51 -14t-56 -5
l-6 35q47 6 82.5 24t50.5 41h44v-417h-64z" />
    <glyph glyph-name="onequarter" horiz-adv-x="799" 
d="M689 93v-93h-60v93h-169v41l170 284h59v-284h34v-41h-34zM252 -15l-53 23l331 694l53 -22zM161 271v336q-26 -9 -51 -14t-56 -5l-6 35q47 6 82.5 24t50.5 41h44v-417h-64zM602 297l-96 -163h123v163l1 52q-5 -10 -11.5 -22t-16.5 -30z" />
    <glyph glyph-name="threequarters" horiz-adv-x="799" 
d="M694 93v-93h-60v93h-169v41l170 284h59v-284h34v-41h-34zM283 -15l-53 23l331 694l54 -22zM163 264q-37 0 -61.5 5.5t-48.5 19.5l18 45q36 -19 82 -19q41 0 63 20t22 58q0 49 -33.5 65.5t-82.5 16.5v40q47 0 74.5 21.5t27.5 53.5q0 29 -18 43t-48 14q-38 0 -72 -17
l-19 41q44 24 102 24q51 0 85 -26t34 -72q0 -34 -20 -56.5t-47 -35.5q36 -12 60 -39t24 -73q0 -58 -39.5 -93.5t-102.5 -35.5zM607 297l-96 -163h123v163l1 52z" />
  </font>
</defs>
</svg>
