<?xml version="1.0" standalone="no"?>
<!DOCTYPE svg PUBLIC "-//W3C//DTD SVG 1.1//EN" "http://www.w3.org/Graphics/SVG/1.1/DTD/svg11.dtd" >
<svg xmlns="http://www.w3.org/2000/svg" xmlns:xlink="http://www.w3.org/1999/xlink" version="1.1">
<metadata>
Created by FontForge 20160407 at Thu Oct 20 10:35:33 2016
 By Jimmy Warting
No Rights Reserved.
</metadata>
<defs>
<font id="Aileron-Regular" horiz-adv-x="580" >
  <font-face 
    font-family="Aileron"
    font-weight="400"
    font-stretch="normal"
    units-per-em="1000"
    panose-1="0 0 5 0 0 0 0 0 0 0"
    ascent="770"
    descent="-230"
    x-height="526"
    cap-height="690"
    bbox="-150 -223 1062 895"
    underline-thickness="50"
    underline-position="-100"
    stemh="66"
    stemv="86"
    unicode-range="U+0020-FB02"
  />
<missing-glyph horiz-adv-x="500" 
d="M0 0v700h500v-700h-500zM250 395l170 255h-340zM280 350l170 -255v510zM80 50h340l-170 255zM50 605v-510l170 255z" />
    <glyph glyph-name="fi" unicode="fi" horiz-adv-x="522" 
d="M444 526v-526h-86v460h-194v-460h-86v460h-57v66h57v14c0 20 1 46 3 64c11 97 77 150 216 150c22 0 43 -2 61 -5v-71c-133 11 -182 -13 -191 -76c-2 -14 -3 -39 -3 -54v-22h280z" />
    <glyph glyph-name="fl" unicode="fl" horiz-adv-x="509" 
d="M419 102c2 -34 18 -45 65 -39v-63c-19 -3 -41 -4 -61 -4c-50 0 -87 16 -90 83c-1 18 -1 41 -1 70v533c-20 4 -43 6 -69 6c-68 0 -99 -37 -106 -86c-2 -14 -3 -39 -3 -54v-22h109v-66h-109v-460h-86v460h-47v66h47v14c0 20 1 46 3 64c11 97 77 150 196 150
c62 0 111 -6 151 -19v-583c0 -16 0 -33 1 -50z" />
    <glyph glyph-name=".notdef" horiz-adv-x="500" 
d="M0 0v700h500v-700h-500zM250 395l170 255h-340zM280 350l170 -255v510zM80 50h340l-170 255zM50 605v-510l170 255z" />
    <glyph glyph-name="A" unicode="A" horiz-adv-x="639" 
d="M456 244h-254l-81 -244h-92l248 690h116l238 -690h-93zM226 314h207l-100 308z" />
    <glyph glyph-name="Aacute" unicode="&#xc1;" horiz-adv-x="639" 
d="M358 736h-56l54 94h80zM456 244h-254l-81 -244h-92l248 690h116l238 -690h-93zM226 314h207l-100 308z" />
    <glyph glyph-name="Abreve" unicode="&#x102;" horiz-adv-x="639" 
d="M335 722c-72 0 -102 39 -102 108h53c1 -36 20 -53 49 -53s48 17 49 53h53c0 -69 -31 -108 -102 -108zM456 244h-254l-81 -244h-92l248 690h116l238 -690h-93zM226 314h207l-100 308z" />
    <glyph glyph-name="Acircumflex" unicode="&#xc2;" horiz-adv-x="639" 
d="M305 736h-66l67 94h59l67 -94h-67l-30 55zM456 244h-254l-81 -244h-92l248 690h116l238 -690h-93zM226 314h207l-100 308z" />
    <glyph glyph-name="Adieresis" unicode="&#xc4;" horiz-adv-x="639" 
d="M265 737c-25 0 -46 21 -46 46s21 46 46 46s46 -21 46 -46s-21 -46 -46 -46zM405 737c-25 0 -46 21 -46 46s21 46 46 46s46 -21 46 -46s-21 -46 -46 -46zM456 244h-254l-81 -244h-92l248 690h116l238 -690h-93zM226 314h207l-100 308z" />
    <glyph glyph-name="Agrave" unicode="&#xc0;" horiz-adv-x="639" 
d="M311 736l-78 94h80l54 -94h-56zM456 244h-254l-81 -244h-92l248 690h116l238 -690h-93zM226 314h207l-100 308z" />
    <glyph glyph-name="Amacron" unicode="&#x100;" horiz-adv-x="639" 
d="M455 757h-240v52h240v-52zM456 244h-254l-81 -244h-92l248 690h116l238 -690h-93zM226 314h207l-100 308z" />
    <glyph glyph-name="Aogonek" unicode="&#x104;" horiz-adv-x="639" 
d="M504 -119c0 -37 15 -50 44 -50c20 0 38 6 56 20v-49c-25 -17 -56 -25 -89 -25c-55 0 -93 22 -93 85c0 76 54 127 112 149l-78 233h-254l-81 -244h-92l248 690h116l238 -690h-33c-51 -9 -94 -56 -94 -119zM226 314h207l-100 308z" />
    <glyph glyph-name="Aring" unicode="&#xc5;" horiz-adv-x="639" 
d="M335 716c-53 0 -91 33 -91 79s38 79 91 79s91 -33 91 -79s-38 -79 -91 -79zM335 838c-24 0 -41 -18 -41 -43s17 -43 41 -43s41 18 41 43s-17 43 -41 43zM456 244h-254l-81 -244h-92l248 690h116l238 -690h-93zM226 314h207l-100 308z" />
    <glyph glyph-name="Atilde" unicode="&#xc3;" horiz-adv-x="639" 
d="M283 770c-10 0 -16 -5 -16 -20h-38c0 56 20 71 52 71c19 0 35 -4 62 -13c24 -8 35 -11 44 -11c10 0 16 5 16 20h38c0 -56 -20 -71 -52 -71c-19 0 -35 4 -62 13c-24 8 -35 11 -44 11zM456 244h-254l-81 -244h-92l248 690h116l238 -690h-93zM226 314h207l-100 308z" />
    <glyph glyph-name="AE" unicode="&#xc6;" horiz-adv-x="908" 
d="M880 70v-70h-435l-14 244h-235l-138 -244h-93l398 690h507v-70h-375l14 -240h331v-70h-327l14 -240h353zM426 314l-17 307l-174 -307h191z" />
    <glyph glyph-name="B" unicode="B" horiz-adv-x="627" 
d="M446 367c91 -21 142 -69 142 -164c0 -126 -87 -184 -178 -198c-34 -5 -56 -5 -88 -5h-222v690h203c33 0 57 0 90 -4c109 -15 170 -70 170 -168c0 -83 -46 -127 -117 -151zM186 620v-227h133c18 0 35 1 55 4c71 11 97 53 97 114c0 68 -44 100 -106 107c-18 2 -39 2 -55 2
h-124zM383 72c66 6 113 47 113 122c0 85 -46 116 -112 125c-23 3 -39 4 -55 4h-143v-253h149c16 0 35 1 48 2z" />
    <glyph glyph-name="C" unicode="C" horiz-adv-x="699" 
d="M373 704c175 0 267 -99 281 -234l1 -10h-86l-2 10c-20 99 -81 166 -196 166c-141 0 -228 -123 -228 -290c0 -170 86 -292 222 -292c115 0 176 67 196 166l2 10h86l-1 -10c-13 -125 -106 -234 -288 -234c-201 0 -313 154 -313 356c0 210 130 362 326 362z" />
    <glyph glyph-name="Cacute" unicode="&#x106;" horiz-adv-x="699" 
d="M389 736h-56l54 94h80zM373 704c175 0 267 -99 281 -234l1 -10h-86l-2 10c-20 99 -81 166 -196 166c-141 0 -228 -123 -228 -290c0 -170 86 -292 222 -292c115 0 176 67 196 166l2 10h86l-1 -10c-13 -125 -106 -234 -288 -234c-201 0 -313 154 -313 356
c0 210 130 362 326 362z" />
    <glyph glyph-name="Ccaron" unicode="&#x10c;" horiz-adv-x="699" 
d="M337 736l-67 94h67l30 -55l30 55h66l-67 -94h-59zM563 230h86l-1 -10c-13 -125 -106 -234 -288 -234c-201 0 -313 154 -313 356c0 210 130 362 326 362c175 0 267 -99 281 -234l1 -10h-86l-2 10c-20 99 -81 166 -196 166c-141 0 -228 -123 -228 -290
c0 -170 86 -292 222 -292c115 0 176 67 196 166z" />
    <glyph glyph-name="Ccedilla" unicode="&#xc7;" horiz-adv-x="699" 
d="M563 230h86l-1 -10c-13 -123 -103 -231 -280 -234l-14 -26c53 -7 81 -36 81 -83c0 -56 -50 -87 -123 -87c-18 0 -36 3 -50 9v44c15 -8 32 -11 53 -11c41 0 62 17 62 44c0 34 -27 51 -96 46l36 66c-174 21 -270 167 -270 354c0 210 130 362 326 362
c175 0 267 -99 281 -234l1 -10h-86l-2 10c-20 99 -81 166 -196 166c-141 0 -228 -123 -228 -290c0 -170 86 -292 222 -292c115 0 176 67 196 166z" />
    <glyph glyph-name="Cdotaccent" unicode="&#x10a;" horiz-adv-x="699" 
d="M366 829c25 0 46 -21 46 -46s-21 -46 -46 -46s-46 21 -46 46s21 46 46 46zM373 704c175 0 267 -99 281 -234l1 -10h-86l-2 10c-20 99 -81 166 -196 166c-141 0 -228 -123 -228 -290c0 -170 86 -292 222 -292c115 0 176 67 196 166l2 10h86l-1 -10
c-13 -125 -106 -234 -288 -234c-201 0 -313 154 -313 356c0 210 130 362 326 362z" />
    <glyph glyph-name="D" unicode="D" horiz-adv-x="709" 
d="M398 686c160 -20 273 -127 273 -333c0 -203 -118 -329 -278 -349c-35 -4 -51 -4 -88 -4h-205v690h210c37 0 53 0 88 -4zM384 75c117 19 193 115 193 278c0 153 -71 243 -188 262c-22 4 -48 5 -84 5h-119v-550h114c36 0 62 1 84 5z" />
    <glyph glyph-name="Eth" unicode="&#xd0;" horiz-adv-x="701" 
d="M390 686c160 -20 273 -127 273 -333c0 -203 -118 -329 -278 -349c-35 -4 -51 -4 -88 -4h-205v305h-59v56h59v329h210c37 0 53 0 88 -4zM376 75c117 19 193 115 193 278c0 153 -71 243 -188 262c-22 4 -48 5 -84 5h-119v-259h136v-56h-136v-235h114c36 0 62 1 84 5z" />
    <glyph glyph-name="Dcaron" unicode="&#x10e;" horiz-adv-x="709" 
d="M341 736l-67 94h67l30 -55l30 55h66l-67 -94h-59zM398 686c160 -20 273 -127 273 -333c0 -203 -118 -329 -278 -349c-35 -4 -51 -4 -88 -4h-205v690h210c37 0 53 0 88 -4zM384 75c117 19 193 115 193 278c0 153 -71 243 -188 262c-22 4 -48 5 -84 5h-119v-550h114
c36 0 62 1 84 5z" />
    <glyph glyph-name="Dcroat" unicode="&#x110;" horiz-adv-x="701" 
d="M390 686c160 -20 273 -127 273 -333c0 -203 -118 -329 -278 -349c-35 -4 -51 -4 -88 -4h-205v305h-59v56h59v329h210c37 0 53 0 88 -4zM376 75c117 19 193 115 193 278c0 153 -71 243 -188 262c-22 4 -48 5 -84 5h-119v-259h136v-56h-136v-235h114c36 0 62 1 84 5z" />
    <glyph glyph-name="E" unicode="E" horiz-adv-x="587" 
d="M559 70v-70h-459v690h449v-70h-363v-240h333v-70h-333v-240h373z" />
    <glyph glyph-name="Eacute" unicode="&#xc9;" horiz-adv-x="587" 
d="M359 736h-56l54 94h80zM559 70v-70h-459v690h449v-70h-363v-240h333v-70h-333v-240h373z" />
    <glyph glyph-name="Ecaron" unicode="&#x11a;" horiz-adv-x="587" 
d="M307 736l-67 94h67l30 -55l30 55h66l-67 -94h-59zM559 70v-70h-459v690h449v-70h-363v-240h333v-70h-333v-240h373z" />
    <glyph glyph-name="Ecircumflex" unicode="&#xca;" horiz-adv-x="587" 
d="M306 736h-66l67 94h59l67 -94h-67l-30 55zM559 70v-70h-459v690h449v-70h-363v-240h333v-70h-333v-240h373z" />
    <glyph glyph-name="Edieresis" unicode="&#xcb;" horiz-adv-x="587" 
d="M266 737c-25 0 -46 21 -46 46s21 46 46 46s46 -21 46 -46s-21 -46 -46 -46zM406 737c-25 0 -46 21 -46 46s21 46 46 46s46 -21 46 -46s-21 -46 -46 -46zM559 70v-70h-459v690h449v-70h-363v-240h333v-70h-333v-240h373z" />
    <glyph glyph-name="Edotaccent" unicode="&#x116;" horiz-adv-x="587" 
d="M336 737c-25 0 -46 21 -46 46s21 46 46 46s46 -21 46 -46s-21 -46 -46 -46zM559 70v-70h-459v690h449v-70h-363v-240h333v-70h-333v-240h373z" />
    <glyph glyph-name="Egrave" unicode="&#xc8;" horiz-adv-x="587" 
d="M312 736l-78 94h80l54 -94h-56zM559 70v-70h-459v690h449v-70h-363v-240h333v-70h-333v-240h373z" />
    <glyph glyph-name="Emacron" unicode="&#x112;" horiz-adv-x="587" 
d="M456 757h-240v52h240v-52zM559 70v-70h-459v690h449v-70h-363v-240h333v-70h-333v-240h373z" />
    <glyph glyph-name="Eogonek" unicode="&#x118;" horiz-adv-x="587" 
d="M510 -169c20 0 38 6 56 20v-49c-25 -17 -56 -25 -89 -25c-55 0 -93 22 -93 85c0 65 40 112 89 138h-373v690h449v-70h-363v-240h333v-70h-333v-240h373v-70h1c-51 -9 -94 -56 -94 -119c0 -37 15 -50 44 -50z" />
    <glyph glyph-name="F" unicode="F" horiz-adv-x="567" 
d="M186 620v-240h323v-70h-323v-310h-86v690h449v-70h-363z" />
    <glyph glyph-name="G" unicode="G" horiz-adv-x="710" 
d="M399 333h247v-333h-76v120l-31 -64c-39 -44 -100 -70 -179 -70c-201 0 -313 154 -313 356c0 210 130 362 326 362c175 0 267 -99 281 -234l1 -10h-86l-2 10c-20 99 -81 166 -196 166c-141 0 -228 -123 -228 -290c0 -170 86 -292 222 -292c112 0 195 86 195 209h-161v70z
" />
    <glyph glyph-name="Gbreve" unicode="&#x11e;" horiz-adv-x="710" 
d="M363 722c-72 0 -102 39 -102 108h53c1 -36 20 -53 49 -53s48 17 49 53h53c0 -69 -31 -108 -102 -108zM399 333h247v-333h-76v120l-31 -64c-39 -44 -100 -70 -179 -70c-201 0 -313 154 -313 356c0 210 130 362 326 362c175 0 267 -99 281 -234l1 -10h-86l-2 10
c-20 99 -81 166 -196 166c-141 0 -228 -123 -228 -290c0 -170 86 -292 222 -292c112 0 195 86 195 209h-161v70z" />
    <glyph glyph-name="Gcommaaccent" unicode="&#x122;" horiz-adv-x="710" 
d="M399 333h247v-333h-76v120l-31 -64c-39 -44 -100 -70 -179 -70c-201 0 -313 154 -313 356c0 210 130 362 326 362c175 0 267 -99 281 -234l1 -10h-86l-2 10c-20 99 -81 166 -196 166c-141 0 -228 -123 -228 -290c0 -170 86 -292 222 -292c112 0 195 86 195 209h-161v70z
M336 -51h69v-12l-60 -132h-61z" />
    <glyph glyph-name="Gdotaccent" unicode="&#x120;" horiz-adv-x="710" 
d="M363 737c-25 0 -46 21 -46 46s21 46 46 46s46 -21 46 -46s-21 -46 -46 -46zM399 333h247v-333h-76v120l-31 -64c-39 -44 -100 -70 -179 -70c-201 0 -313 154 -313 356c0 210 130 362 326 362c175 0 267 -99 281 -234l1 -10h-86l-2 10c-20 99 -81 166 -196 166
c-141 0 -228 -123 -228 -290c0 -170 86 -292 222 -292c112 0 195 86 195 209h-161v70z" />
    <glyph glyph-name="H" unicode="H" horiz-adv-x="730" 
d="M652 690v-690h-86v302h-380v-302h-86v690h86v-316h380v316h86z" />
    <glyph glyph-name="Hbar" unicode="&#x126;" horiz-adv-x="730" 
d="M692 502h-40v-502h-86v302h-380v-302h-86v502h-40v56h40v132h86v-132h380v132h86v-132h40v-56zM566 502h-380v-128h380v128z" />
    <glyph glyph-name="I" unicode="I" horiz-adv-x="264" 
d="M186 0h-86v690h86v-690z" />
    <glyph glyph-name="IJ" unicode="&#x132;" horiz-adv-x="808" 
d="M186 0h-86v690h86v-690zM752 690v-426c0 -26 0 -49 -2 -83c-7 -116 -77 -195 -223 -195c-128 0 -204 79 -207 208l-1 41h86l2 -41c5 -95 50 -140 132 -140c80 0 120 51 126 132c1 20 1 45 1 81v423h86z" />
    <glyph glyph-name="Iacute" unicode="&#xcd;" horiz-adv-x="264" 
d="M166 736h-56l54 94h80zM186 0h-86v690h86v-690z" />
    <glyph glyph-name="Icircumflex" unicode="&#xce;" horiz-adv-x="264" 
d="M113 736h-66l67 94h59l67 -94h-67l-30 55zM100 690h86v-690h-86v690z" />
    <glyph glyph-name="Idieresis" unicode="&#xcf;" horiz-adv-x="264" 
d="M73 829c25 0 46 -21 46 -46s-21 -46 -46 -46s-46 21 -46 46s21 46 46 46zM213 829c25 0 46 -21 46 -46s-21 -46 -46 -46s-46 21 -46 46s21 46 46 46zM186 0h-86v690h86v-690z" />
    <glyph glyph-name="Idotaccent" unicode="&#x130;" horiz-adv-x="264" 
d="M143 829c25 0 46 -21 46 -46s-21 -46 -46 -46s-46 21 -46 46s21 46 46 46zM186 0h-86v690h86v-690z" />
    <glyph glyph-name="Igrave" unicode="&#xcc;" horiz-adv-x="264" 
d="M175 736h-56l-78 94h80zM186 0h-86v690h86v-690z" />
    <glyph glyph-name="Imacron" unicode="&#x12a;" horiz-adv-x="264" 
d="M263 757h-240v52h240v-52zM186 0h-86v690h86v-690z" />
    <glyph glyph-name="Iogonek" unicode="&#x12e;" horiz-adv-x="264" 
d="M186 0h-24c-51 -9 -94 -56 -94 -119c0 -37 15 -50 44 -50c20 0 38 6 56 20v-49c-25 -17 -56 -25 -89 -25c-55 0 -93 22 -93 85c0 76 54 127 113 149h1v679h86v-690z" />
    <glyph glyph-name="J" unicode="J" horiz-adv-x="544" 
d="M488 690v-426c0 -26 0 -49 -2 -83c-7 -116 -77 -195 -223 -195c-128 0 -204 79 -207 208l-1 41h86l2 -41c5 -95 50 -140 132 -140c80 0 120 51 126 132c1 20 1 45 1 81v423h86z" />
    <glyph glyph-name="K" unicode="K" horiz-adv-x="609" 
d="M315 353l295 -353h-121l-237 295l-66 -71v-224h-86v690h86v-367l341 367h101z" />
    <glyph glyph-name="Kcommaaccent" unicode="&#x136;" horiz-adv-x="609" 
d="M315 353l295 -353h-121l-237 295l-66 -71v-224h-86v690h86v-367l341 367h101zM309 -51h69v-12l-60 -132h-61z" />
    <glyph glyph-name="L" unicode="L" horiz-adv-x="575" 
d="M559 70v-70h-459v690h86v-620h373z" />
    <glyph glyph-name="Lacute" unicode="&#x139;" horiz-adv-x="575" 
d="M166 736h-56l54 94h80zM559 70v-70h-459v690h86v-620h373z" />
    <glyph glyph-name="Lcaron" unicode="&#x13d;" horiz-adv-x="575" 
d="M559 70v-70h-459v690h86v-620h373z" />
    <glyph glyph-name="Lcommaaccent" unicode="&#x13b;" horiz-adv-x="575" 
d="M559 70v-70h-459v690h86v-620h373zM305 -51h69v-12l-60 -132h-61z" />
    <glyph glyph-name="Ldot" unicode="&#x13f;" horiz-adv-x="575" 
d="M559 70v-70h-459v690h86v-620h373zM392 345c-31 0 -55 24 -55 55s24 55 55 55s55 -24 55 -55s-24 -55 -55 -55z" />
    <glyph glyph-name="Lslash" unicode="&#x141;" horiz-adv-x="597" 
d="M581 70v-70h-459v288l-108 -64v67l108 64v335h86v-284l126 75v-67l-126 -75v-269h373z" />
    <glyph glyph-name="M" unicode="M" horiz-adv-x="866" 
d="M788 690v-690h-86v355c0 86 0 182 2 257c-23 -75 -55 -172 -84 -256l-122 -356h-108l-124 358c-28 82 -60 178 -82 252c2 -75 2 -170 2 -255v-355h-86v690h142l204 -617l203 617h139z" />
    <glyph glyph-name="N" unicode="N" horiz-adv-x="718" 
d="M640 0h-132l-325 606c2 -81 3 -180 3 -261v-345h-86v690h132l325 -606c-2 81 -3 180 -3 261v345h84z" />
    <glyph glyph-name="Nacute" unicode="&#x143;" horiz-adv-x="718" 
d="M393 736h-56l54 94h80zM640 0h-132l-325 606c2 -81 3 -180 3 -261v-345h-86v690h132l325 -606c-2 81 -3 180 -3 261v345h84z" />
    <glyph glyph-name="Ncaron" unicode="&#x147;" horiz-adv-x="718" 
d="M341 736l-67 94h67l30 -55l30 55h66l-67 -94h-59zM508 0l-325 606c2 -81 3 -180 3 -261v-345h-86v690h132l325 -606c-2 81 -3 180 -3 261v345h84l2 -690h-132z" />
    <glyph glyph-name="Ncommaaccent" unicode="&#x145;" horiz-adv-x="718" 
d="M640 0h-132l-325 606c2 -81 3 -180 3 -261v-345h-86v690h132l325 -606c-2 81 -3 180 -3 261v345h84zM414 -63l-60 -132h-61l52 144h69v-12z" />
    <glyph glyph-name="Eng" unicode="&#x14a;" horiz-adv-x="718" 
d="M640 690v-757c0 -18 0 -27 -1 -41c-9 -88 -68 -115 -157 -115v70c54 0 71 25 71 70v52l-370 629c2 -81 3 -172 3 -253v-345h-86v690h132l325 -566c-2 81 -3 160 -3 241v325h86z" />
    <glyph glyph-name="Ntilde" unicode="&#xd1;" horiz-adv-x="718" 
d="M316 821c19 0 35 -4 62 -13c24 -8 35 -11 44 -11c10 0 16 5 16 20h38c0 -56 -20 -71 -52 -71c-19 0 -35 4 -62 13c-24 8 -35 11 -44 11c-10 0 -16 -5 -16 -20h-38c0 56 20 71 52 71zM640 0h-132l-325 606c2 -81 3 -180 3 -261v-345h-86v690h132l325 -606
c-2 81 -3 180 -3 261v345h84z" />
    <glyph glyph-name="O" unicode="O" horiz-adv-x="737" 
d="M373 704c210 0 326 -148 326 -359c0 -210 -116 -359 -326 -359s-326 149 -326 359c0 211 116 359 326 359zM373 54c145 0 230 112 230 291c0 180 -85 291 -230 291s-230 -111 -230 -291c0 -179 85 -291 230 -291z" />
    <glyph glyph-name="Oacute" unicode="&#xd3;" horiz-adv-x="737" 
d="M396 736h-56l54 94h80zM373 704c210 0 326 -148 326 -359c0 -210 -116 -359 -326 -359s-326 149 -326 359c0 211 116 359 326 359zM373 54c145 0 230 112 230 291c0 180 -85 291 -230 291s-230 -111 -230 -291c0 -179 85 -291 230 -291z" />
    <glyph glyph-name="Ocircumflex" unicode="&#xd4;" horiz-adv-x="737" 
d="M343 736h-66l67 94h59l67 -94h-67l-30 55zM373 704c210 0 326 -148 326 -359c0 -210 -116 -359 -326 -359s-326 149 -326 359c0 211 116 359 326 359zM373 54c145 0 230 112 230 291c0 180 -85 291 -230 291s-230 -111 -230 -291c0 -179 85 -291 230 -291z" />
    <glyph glyph-name="Odieresis" unicode="&#xd6;" horiz-adv-x="737" 
d="M303 737c-25 0 -46 21 -46 46s21 46 46 46s46 -21 46 -46s-21 -46 -46 -46zM443 737c-25 0 -46 21 -46 46s21 46 46 46s46 -21 46 -46s-21 -46 -46 -46zM373 704c210 0 326 -148 326 -359c0 -210 -116 -359 -326 -359s-326 149 -326 359c0 211 116 359 326 359zM373 54
c145 0 230 112 230 291c0 180 -85 291 -230 291s-230 -111 -230 -291c0 -179 85 -291 230 -291z" />
    <glyph glyph-name="Ograve" unicode="&#xd2;" horiz-adv-x="737" 
d="M349 736l-78 94h80l54 -94h-56zM373 704c210 0 326 -148 326 -359c0 -210 -116 -359 -326 -359s-326 149 -326 359c0 211 116 359 326 359zM373 54c145 0 230 112 230 291c0 180 -85 291 -230 291s-230 -111 -230 -291c0 -179 85 -291 230 -291z" />
    <glyph glyph-name="Ohungarumlaut" unicode="&#x150;" horiz-adv-x="737" 
d="M325 736h-56l54 94h80zM378 736l54 94h80l-78 -94h-56zM373 704c210 0 326 -148 326 -359c0 -210 -116 -359 -326 -359s-326 149 -326 359c0 211 116 359 326 359zM373 54c145 0 230 112 230 291c0 180 -85 291 -230 291s-230 -111 -230 -291c0 -179 85 -291 230 -291z
" />
    <glyph glyph-name="Omacron" unicode="&#x14c;" horiz-adv-x="737" 
d="M493 757h-240v52h240v-52zM373 704c210 0 326 -148 326 -359c0 -210 -116 -359 -326 -359s-326 149 -326 359c0 211 116 359 326 359zM373 54c145 0 230 112 230 291c0 180 -85 291 -230 291s-230 -111 -230 -291c0 -179 85 -291 230 -291z" />
    <glyph glyph-name="Oslash" unicode="&#xd8;" horiz-adv-x="745" 
d="M711 638l-67 -67c39 -60 59 -138 59 -226c0 -210 -116 -359 -326 -359c-98 0 -175 32 -230 88l-63 -63l-41 41l68 68c-40 60 -60 137 -60 225c0 211 116 359 326 359c98 0 175 -32 230 -88l63 63zM147 345c0 -62 10 -116 29 -160l372 372c-40 51 -98 79 -171 79
c-145 0 -230 -111 -230 -291zM607 345c0 62 -10 116 -29 160l-371 -371c39 -52 97 -80 170 -80c145 0 230 112 230 291z" />
    <glyph glyph-name="Otilde" unicode="&#xd5;" horiz-adv-x="737" 
d="M321 770c-10 0 -16 -5 -16 -20h-38c0 56 20 71 52 71c19 0 35 -4 62 -13c24 -8 35 -11 44 -11c10 0 16 5 16 20h38c0 -56 -20 -71 -52 -71c-19 0 -35 4 -62 13c-24 8 -35 11 -44 11zM373 704c210 0 326 -148 326 -359c0 -210 -116 -359 -326 -359s-326 149 -326 359
c0 211 116 359 326 359zM373 54c145 0 230 112 230 291c0 180 -85 291 -230 291s-230 -111 -230 -291c0 -179 85 -291 230 -291z" />
    <glyph glyph-name="OE" unicode="&#x152;" horiz-adv-x="1090" 
d="M1062 70v-70h-459v141l-27 -73c-52 -59 -124 -82 -213 -82c-200 0 -316 159 -316 359c0 201 116 359 316 359c102 0 160 -24 213 -86l27 -71v143h449v-70h-363v-240h333v-70h-333v-240h373zM373 54c145 0 230 119 230 291c0 173 -85 291 -230 291s-230 -118 -230 -291
c0 -172 85 -291 230 -291z" />
    <glyph glyph-name="P" unicode="P" horiz-adv-x="598" 
d="M404 686c110 -14 179 -83 179 -200s-79 -187 -179 -200c-31 -4 -55 -4 -90 -4h-128v-282h-86v690h214c35 0 59 0 90 -4zM399 359c49 11 92 47 92 127s-43 116 -92 127c-19 4 -46 5 -77 5h-136v-264h136c31 0 58 1 77 5z" />
    <glyph glyph-name="Thorn" unicode="&#xde;" horiz-adv-x="630" 
d="M409 598c100 -13 174 -77 174 -190s-74 -180 -174 -193c-31 -4 -55 -4 -90 -4h-133v-211h-86v690h86v-88h133c35 0 59 0 90 -4zM396 288c49 11 95 42 95 118s-46 108 -95 119c-19 4 -46 5 -77 5h-133v-247h133c31 0 58 1 77 5z" />
    <glyph glyph-name="Q" unicode="Q" horiz-adv-x="733" 
d="M573 72c46 -7 86 -30 128 -65l-49 -59c-68 46 -100 54 -135 54c-28 0 -45 -3 -73 -9c-22 -5 -45 -7 -71 -7c-210 0 -326 149 -326 359c0 211 116 359 326 359s326 -148 326 -359c0 -116 -44 -213 -126 -273zM143 345c0 -179 85 -291 230 -291s230 112 230 291
c0 180 -85 291 -230 291s-230 -111 -230 -291z" />
    <glyph glyph-name="R" unicode="R" horiz-adv-x="619" 
d="M554 181c8 -90 18 -144 46 -181h-95c-19 44 -28 88 -37 173c-8 71 -35 118 -103 123c-16 1 -33 1 -49 1h-130v-297h-86v690h226c35 0 59 0 90 -4c100 -13 172 -68 172 -184c0 -91 -59 -143 -123 -163c56 -26 83 -89 89 -158zM186 367h132c31 0 48 0 67 2
c64 6 111 47 111 125c0 77 -37 112 -101 122c-19 3 -38 4 -69 4h-140v-253z" />
    <glyph glyph-name="Racute" unicode="&#x154;" horiz-adv-x="619" 
d="M345 736h-56l54 94h80zM554 181c8 -90 18 -144 46 -181h-95c-19 44 -28 88 -37 173c-8 71 -35 118 -103 123c-16 1 -33 1 -49 1h-130v-297h-86v690h226c35 0 59 0 90 -4c100 -13 172 -68 172 -184c0 -91 -59 -143 -123 -163c56 -26 83 -89 89 -158zM186 367h132
c31 0 48 0 67 2c64 6 111 47 111 125c0 77 -37 112 -101 122c-19 3 -38 4 -69 4h-140v-253z" />
    <glyph glyph-name="Rcaron" unicode="&#x158;" horiz-adv-x="619" 
d="M293 736l-67 94h67l30 -55l30 55h66l-67 -94h-59zM554 181c8 -90 18 -144 46 -181h-95c-19 44 -28 88 -37 173c-8 71 -35 118 -103 123c-16 1 -33 1 -49 1h-130v-297h-86v690h226c35 0 59 0 90 -4c100 -13 172 -68 172 -184c0 -91 -59 -143 -123 -163
c56 -26 83 -89 89 -158zM186 367h132c31 0 48 0 67 2c64 6 111 47 111 125c0 77 -37 112 -101 122c-19 3 -38 4 -69 4h-140v-253z" />
    <glyph glyph-name="Rcommaaccent" unicode="&#x156;" horiz-adv-x="619" 
d="M554 181c8 -90 18 -144 46 -181h-95c-19 44 -28 88 -37 173c-8 71 -35 118 -103 123c-16 1 -33 1 -49 1h-130v-297h-86v690h226c35 0 59 0 90 -4c100 -13 172 -68 172 -184c0 -91 -59 -143 -123 -163c56 -26 83 -89 89 -158zM186 367h132c31 0 48 0 67 2
c64 6 111 47 111 125c0 77 -37 112 -101 122c-19 3 -38 4 -69 4h-140v-253zM292 -51h69v-12l-60 -132h-61z" />
    <glyph glyph-name="S" unicode="S" horiz-adv-x="585" 
d="M314 704c143 0 218 -87 231 -205h-92c-8 87 -59 137 -146 137c-73 0 -131 -34 -131 -106c0 -75 43 -107 148 -131c152 -35 228 -97 228 -214c0 -121 -104 -199 -237 -199c-152 0 -248 77 -263 210h92c20 -91 83 -142 173 -142c79 0 143 43 143 115c0 84 -48 122 -169 150
c-122 28 -207 77 -207 191c0 119 103 194 230 194z" />
    <glyph glyph-name="Sacute" unicode="&#x15a;" horiz-adv-x="585" 
d="M327 736h-56l54 94h80zM314 704c143 0 218 -87 231 -205h-92c-8 87 -59 137 -146 137c-73 0 -131 -34 -131 -106c0 -75 43 -107 148 -131c152 -35 228 -97 228 -214c0 -121 -104 -199 -237 -199c-152 0 -248 77 -263 210h92c20 -91 83 -142 173 -142c79 0 143 43 143 115
c0 84 -48 122 -169 150c-122 28 -207 77 -207 191c0 119 103 194 230 194z" />
    <glyph glyph-name="Scaron" unicode="&#x160;" horiz-adv-x="585" 
d="M275 736l-67 94h67l30 -55l30 55h66l-67 -94h-59zM324 399c152 -35 228 -97 228 -214c0 -121 -104 -199 -237 -199c-152 0 -248 77 -263 210h92c20 -91 83 -142 173 -142c79 0 143 43 143 115c0 84 -48 122 -169 150c-122 28 -207 77 -207 191c0 119 103 194 230 194
c143 0 218 -87 231 -205h-92c-8 87 -59 137 -146 137c-73 0 -131 -34 -131 -106c0 -75 43 -107 148 -131z" />
    <glyph glyph-name="Scedilla" unicode="&#x15e;" horiz-adv-x="585" 
d="M552 185c0 -118 -98 -194 -226 -199l-14 -26c53 -7 81 -36 81 -83c0 -56 -50 -87 -123 -87c-18 0 -36 3 -50 9v44c15 -8 32 -11 53 -11c41 0 62 17 62 44c0 34 -27 51 -96 46l36 66c-129 13 -209 87 -223 208h92c20 -91 83 -142 173 -142c79 0 143 43 143 115
c0 84 -48 122 -169 150c-122 28 -207 77 -207 191c0 119 103 194 230 194c143 0 218 -87 231 -205h-92c-8 87 -59 137 -146 137c-73 0 -131 -34 -131 -106c0 -75 43 -107 148 -131c152 -35 228 -97 228 -214z" />
    <glyph glyph-name="Scommaaccent" unicode="&#x218;" horiz-adv-x="585" 
d="M314 704c143 0 218 -87 231 -205h-92c-8 87 -59 137 -146 137c-73 0 -131 -34 -131 -106c0 -75 43 -107 148 -131c152 -35 228 -97 228 -214c0 -121 -104 -199 -237 -199c-152 0 -248 77 -263 210h92c20 -91 83 -142 173 -142c79 0 143 43 143 115c0 84 -48 122 -169 150
c-122 28 -207 77 -207 191c0 119 103 194 230 194zM348 -63l-60 -132h-61l52 144h69v-12z" />
    <glyph glyph-name="T" unicode="T" horiz-adv-x="612" 
d="M612 620h-246v-620h-86v620h-246v70h578v-70z" />
    <glyph glyph-name="Tbar" unicode="&#x166;" horiz-adv-x="612" 
d="M366 620v-259h112v-56h-112v-305h-86v305h-112v56h112v259h-246v70h578v-70h-246z" />
    <glyph glyph-name="Tcaron" unicode="&#x164;" horiz-adv-x="612" 
d="M294 736l-67 94h67l30 -55l30 55h66l-67 -94h-59zM612 620h-246v-620h-86v620h-246v70h578v-70z" />
    <glyph glyph-name="Tcedilla" unicode="&#x162;" horiz-adv-x="612" 
d="M353 0l-22 -40c53 -7 81 -36 81 -83c0 -56 -50 -87 -123 -87c-18 0 -36 3 -50 9v44c15 -8 32 -11 53 -11c41 0 62 17 62 44c0 34 -27 51 -96 46l42 78h-20v620h-246v70h578v-70h-246v-620h-13z" />
    <glyph glyph-name="uni021A" unicode="&#x21a;" horiz-adv-x="612" 
d="M612 690v-70h-246v-620h-86v620h-246v70h578zM298 -51h69v-12l-60 -132h-61z" />
    <glyph glyph-name="U" unicode="U" horiz-adv-x="682" 
d="M612 690v-435c0 -22 0 -42 -2 -62c-10 -115 -88 -207 -257 -207s-247 92 -257 207c-2 20 -2 40 -2 62v435h86v-427c0 -22 0 -43 2 -61c8 -87 65 -148 171 -148s163 61 171 148c2 18 2 39 2 61v427h86z" />
    <glyph glyph-name="Uacute" unicode="&#xda;" horiz-adv-x="682" 
d="M376 736h-56l54 94h80zM612 690v-435c0 -22 0 -42 -2 -62c-10 -115 -88 -207 -257 -207s-247 92 -257 207c-2 20 -2 40 -2 62v435h86v-427c0 -22 0 -43 2 -61c8 -87 65 -148 171 -148s163 61 171 148c2 18 2 39 2 61v427h86z" />
    <glyph glyph-name="Ucircumflex" unicode="&#xdb;" horiz-adv-x="682" 
d="M323 736h-66l67 94h59l67 -94h-67l-30 55zM612 690v-435c0 -22 0 -42 -2 -62c-10 -115 -88 -207 -257 -207s-247 92 -257 207c-2 20 -2 40 -2 62v435h86v-427c0 -22 0 -43 2 -61c8 -87 65 -148 171 -148s163 61 171 148c2 18 2 39 2 61v427h86z" />
    <glyph glyph-name="Udieresis" unicode="&#xdc;" horiz-adv-x="682" 
d="M283 829c25 0 46 -21 46 -46s-21 -46 -46 -46s-46 21 -46 46s21 46 46 46zM423 829c25 0 46 -21 46 -46s-21 -46 -46 -46s-46 21 -46 46s21 46 46 46zM612 690v-435c0 -22 0 -42 -2 -62c-10 -115 -88 -207 -257 -207s-247 92 -257 207c-2 20 -2 40 -2 62v435h86v-427
c0 -22 0 -43 2 -61c8 -87 65 -148 171 -148s163 61 171 148c2 18 2 39 2 61v427h86z" />
    <glyph glyph-name="Ugrave" unicode="&#xd9;" horiz-adv-x="682" 
d="M385 736h-56l-78 94h80zM612 690v-435c0 -22 0 -42 -2 -62c-10 -115 -88 -207 -257 -207s-247 92 -257 207c-2 20 -2 40 -2 62v435h86v-427c0 -22 0 -43 2 -61c8 -87 65 -148 171 -148s163 61 171 148c2 18 2 39 2 61v427h86z" />
    <glyph glyph-name="Uhungarumlaut" unicode="&#x170;" horiz-adv-x="682" 
d="M305 736h-56l54 94h80zM414 736h-56l54 94h80zM612 690v-435c0 -22 0 -42 -2 -62c-10 -115 -88 -207 -257 -207s-247 92 -257 207c-2 20 -2 40 -2 62v435h86v-427c0 -22 0 -43 2 -61c8 -87 65 -148 171 -148s163 61 171 148c2 18 2 39 2 61v427h86z" />
    <glyph glyph-name="Umacron" unicode="&#x16a;" horiz-adv-x="682" 
d="M473 757h-240v52h240v-52zM612 690v-435c0 -22 0 -42 -2 -62c-10 -115 -88 -207 -257 -207s-247 92 -257 207c-2 20 -2 40 -2 62v435h86v-427c0 -22 0 -43 2 -61c8 -87 65 -148 171 -148s163 61 171 148c2 18 2 39 2 61v427h86z" />
    <glyph glyph-name="Uogonek" unicode="&#x172;" horiz-adv-x="682" 
d="M612 690v-435c0 -22 0 -42 -2 -62c-8 -94 -61 -172 -172 -198c-43 -16 -76 -59 -76 -114c0 -37 15 -50 44 -50c20 0 38 6 56 20v-49c-25 -17 -56 -25 -89 -25c-55 0 -93 22 -93 85c0 55 28 97 66 124c-164 3 -240 94 -250 207c-2 20 -2 40 -2 62v435h86v-427
c0 -22 0 -43 2 -61c8 -87 65 -148 171 -148s163 61 171 148c2 18 2 39 2 61v427h86z" />
    <glyph glyph-name="Uring" unicode="&#x16e;" horiz-adv-x="682" 
d="M353 874c53 0 91 -33 91 -79s-38 -79 -91 -79s-91 33 -91 79s38 79 91 79zM353 838c-24 0 -41 -18 -41 -43s17 -43 41 -43s41 18 41 43s-17 43 -41 43zM612 690v-435c0 -22 0 -42 -2 -62c-10 -115 -88 -207 -257 -207s-247 92 -257 207c-2 20 -2 40 -2 62v435h86v-427
c0 -22 0 -43 2 -61c8 -87 65 -148 171 -148s163 61 171 148c2 18 2 39 2 61v427h86z" />
    <glyph glyph-name="V" unicode="V" horiz-adv-x="622" 
d="M386 0h-116l-238 690h93l205 -625l212 625h92z" />
    <glyph glyph-name="W" unicode="W" horiz-adv-x="952" 
d="M945 690l-192 -690h-113l-156 595l-162 -595h-114l-182 690h98l145 -613l160 603h116l156 -604l153 614h91z" />
    <glyph glyph-name="Wacute" unicode="&#x1e82;" horiz-adv-x="952" 
d="M510 736h-56l54 94h80zM945 690l-192 -690h-113l-156 595l-162 -595h-114l-182 690h98l145 -613l160 603h116l156 -604l153 614h91z" />
    <glyph glyph-name="Wcircumflex" unicode="&#x174;" horiz-adv-x="952" 
d="M457 736h-66l67 94h59l67 -94h-67l-30 55zM945 690l-192 -690h-113l-156 595l-162 -595h-114l-182 690h98l145 -613l160 603h116l156 -604l153 614h91z" />
    <glyph glyph-name="Wdieresis" unicode="&#x1e84;" horiz-adv-x="952" 
d="M417 737c-25 0 -46 21 -46 46s21 46 46 46s46 -21 46 -46s-21 -46 -46 -46zM557 737c-25 0 -46 21 -46 46s21 46 46 46s46 -21 46 -46s-21 -46 -46 -46zM945 690l-192 -690h-113l-156 595l-162 -595h-114l-182 690h98l145 -613l160 603h116l156 -604l153 614h91z" />
    <glyph glyph-name="Wgrave" unicode="&#x1e80;" horiz-adv-x="952" 
d="M463 736l-78 94h80l54 -94h-56zM945 690l-192 -690h-113l-156 595l-162 -595h-114l-182 690h98l145 -613l160 603h116l156 -604l153 614h91z" />
    <glyph glyph-name="X" unicode="X" horiz-adv-x="625" 
d="M522 0l-202 292l-196 -292h-99l246 348l-228 342h98l183 -282l190 282h99l-240 -339l250 -351h-101z" />
    <glyph glyph-name="Y" unicode="Y" horiz-adv-x="581" 
d="M349 272v-272h-86v272l-244 418h99l192 -335l186 335h97z" />
    <glyph glyph-name="Yacute" unicode="&#xdd;" horiz-adv-x="581" 
d="M329 736h-56l54 94h80zM349 272v-272h-86v272l-244 418h99l192 -335l186 335h97z" />
    <glyph glyph-name="Ycircumflex" unicode="&#x176;" horiz-adv-x="581" 
d="M276 736h-66l67 94h59l67 -94h-67l-30 55zM349 272v-272h-86v272l-244 418h99l192 -335l186 335h97z" />
    <glyph glyph-name="Ydieresis" unicode="&#x178;" horiz-adv-x="581" 
d="M236 737c-25 0 -46 21 -46 46s21 46 46 46s46 -21 46 -46s-21 -46 -46 -46zM376 737c-25 0 -46 21 -46 46s21 46 46 46s46 -21 46 -46s-21 -46 -46 -46zM349 272v-272h-86v272l-244 418h99l192 -335l186 335h97z" />
    <glyph glyph-name="Ygrave" unicode="&#x1ef2;" horiz-adv-x="581" 
d="M282 736l-78 94h80l54 -94h-56zM349 272v-272h-86v272l-244 418h99l192 -335l186 335h97z" />
    <glyph glyph-name="Z" unicode="Z" horiz-adv-x="591" 
d="M569 70v-70h-523v66l417 554h-389v70h489v-69l-415 -551h421z" />
    <glyph glyph-name="Zacute" unicode="&#x179;" horiz-adv-x="591" 
d="M329 736h-56l54 94h80zM569 70v-70h-523v66l417 554h-389v70h489v-69l-415 -551h421z" />
    <glyph glyph-name="Zcaron" unicode="&#x17d;" horiz-adv-x="591" 
d="M277 736l-67 94h67l30 -55l30 55h66l-67 -94h-59zM569 70v-70h-523v66l417 554h-389v70h489v-69l-415 -551h421z" />
    <glyph glyph-name="Zdotaccent" unicode="&#x17b;" horiz-adv-x="591" 
d="M306 737c-25 0 -46 21 -46 46s21 46 46 46s46 -21 46 -46s-21 -46 -46 -46zM569 70v-70h-523v66l417 554h-389v70h489v-69l-415 -551h421z" />
    <glyph glyph-name="a" unicode="a" horiz-adv-x="531" 
d="M378 0l-9 76l-29 -57c-36 -25 -82 -33 -133 -33c-96 0 -171 53 -171 151c0 120 90 182 298 182h34v14c0 23 0 44 -2 64c-4 49 -32 81 -103 81c-72 0 -108 -39 -114 -112h-90c8 113 87 178 204 178c126 0 179 -53 188 -140c2 -21 3 -47 3 -70v-199c0 -40 2 -76 10 -135
h-86zM236 52c80 0 132 53 132 149v54c-146 11 -238 -20 -238 -111c0 -64 41 -92 106 -92z" />
    <glyph glyph-name="aacute" unicode="&#xe1;" horiz-adv-x="531" 
d="M286 580h-56l61 110h80zM378 0l-9 76l-29 -57c-36 -25 -82 -33 -133 -33c-96 0 -171 53 -171 151c0 120 90 182 298 182h34v14c0 23 0 44 -2 64c-4 49 -32 81 -103 81c-72 0 -108 -39 -114 -112h-90c8 113 87 178 204 178c126 0 179 -53 188 -140c2 -21 3 -47 3 -70v-199
c0 -40 2 -76 10 -135h-86zM236 52c80 0 132 53 132 149v54c-146 11 -238 -20 -238 -111c0 -64 41 -92 106 -92z" />
    <glyph glyph-name="abreve" unicode="&#x103;" horiz-adv-x="531" 
d="M264 566c-72 0 -102 41 -102 124h53c1 -52 20 -69 49 -69s48 17 49 69h53c0 -83 -31 -124 -102 -124zM378 0l-9 76l-29 -57c-36 -25 -82 -33 -133 -33c-96 0 -171 53 -171 151c0 120 90 182 298 182h34v14c0 23 0 44 -2 64c-4 49 -32 81 -103 81
c-72 0 -108 -39 -114 -112h-90c8 113 87 178 204 178c126 0 179 -53 188 -140c2 -21 3 -47 3 -70v-199c0 -40 2 -76 10 -135h-86zM236 52c80 0 132 53 132 149v54c-146 11 -238 -20 -238 -111c0 -64 41 -92 106 -92z" />
    <glyph glyph-name="acircumflex" unicode="&#xe2;" horiz-adv-x="531" 
d="M231 580h-63l67 110h59l67 -110h-64l-33 63zM378 0l-9 76l-29 -57c-36 -25 -82 -33 -133 -33c-96 0 -171 53 -171 151c0 120 90 182 298 182h34v14c0 23 0 44 -2 64c-4 49 -32 81 -103 81c-72 0 -108 -39 -114 -112h-90c8 113 87 178 204 178c126 0 179 -53 188 -140
c2 -21 3 -47 3 -70v-199c0 -40 2 -76 10 -135h-86zM236 52c80 0 132 53 132 149v54c-146 11 -238 -20 -238 -111c0 -64 41 -92 106 -92z" />
    <glyph glyph-name="adieresis" unicode="&#xe4;" horiz-adv-x="531" 
d="M191 583c-25 0 -46 21 -46 46s21 46 46 46s46 -21 46 -46s-21 -46 -46 -46zM337 583c-25 0 -46 21 -46 46s21 46 46 46s46 -21 46 -46s-21 -46 -46 -46zM378 0l-9 76l-29 -57c-36 -25 -82 -33 -133 -33c-96 0 -171 53 -171 151c0 120 90 182 298 182h34v14
c0 23 0 44 -2 64c-4 49 -32 81 -103 81c-72 0 -108 -39 -114 -112h-90c8 113 87 178 204 178c126 0 179 -53 188 -140c2 -21 3 -47 3 -70v-199c0 -40 2 -76 10 -135h-86zM236 52c80 0 132 53 132 149v54c-146 11 -238 -20 -238 -111c0 -64 41 -92 106 -92z" />
    <glyph glyph-name="agrave" unicode="&#xe0;" horiz-adv-x="531" 
d="M240 580l-85 110h80l61 -110h-56zM378 0l-9 76l-29 -57c-36 -25 -82 -33 -133 -33c-96 0 -171 53 -171 151c0 120 90 182 298 182h34v14c0 23 0 44 -2 64c-4 49 -32 81 -103 81c-72 0 -108 -39 -114 -112h-90c8 113 87 178 204 178c126 0 179 -53 188 -140
c2 -21 3 -47 3 -70v-199c0 -40 2 -76 10 -135h-86zM236 52c80 0 132 53 132 149v54c-146 11 -238 -20 -238 -111c0 -64 41 -92 106 -92z" />
    <glyph glyph-name="amacron" unicode="&#x101;" horiz-adv-x="531" 
d="M384 604h-240v52h240v-52zM378 0l-9 76l-29 -57c-36 -25 -82 -33 -133 -33c-96 0 -171 53 -171 151c0 120 90 182 298 182h34v14c0 23 0 44 -2 64c-4 49 -32 81 -103 81c-72 0 -108 -39 -114 -112h-90c8 113 87 178 204 178c126 0 179 -53 188 -140c2 -21 3 -47 3 -70
v-199c0 -40 2 -76 10 -135h-86zM236 52c80 0 132 53 132 149v54c-146 11 -238 -20 -238 -111c0 -64 41 -92 106 -92z" />
    <glyph glyph-name="aogonek" unicode="&#x105;" horiz-adv-x="531" 
d="M347 -119c0 -37 15 -50 44 -50c20 0 38 6 56 20v-49c-25 -17 -56 -25 -89 -25c-55 0 -93 22 -93 85c0 75 53 126 112 149l-8 65l-29 -57c-36 -25 -82 -33 -133 -33c-96 0 -171 53 -171 151c0 120 90 182 298 182h34v14c0 23 0 44 -2 64c-4 49 -32 81 -103 81
c-72 0 -108 -39 -114 -112h-90c8 113 87 178 204 178c126 0 179 -53 188 -140c2 -21 3 -47 3 -70v-199c0 -40 2 -76 10 -135h-23c-51 -9 -94 -56 -94 -119zM236 52c80 0 132 53 132 149v54c-146 11 -238 -20 -238 -111c0 -64 41 -92 106 -92z" />
    <glyph glyph-name="aring" unicode="&#xe5;" horiz-adv-x="531" 
d="M264 565c-53 0 -91 35 -91 84s38 84 91 84s91 -35 91 -84s-38 -84 -91 -84zM264 697c-24 0 -41 -18 -41 -48s17 -48 41 -48s41 18 41 48s-17 48 -41 48zM378 0l-9 76l-29 -57c-36 -25 -82 -33 -133 -33c-96 0 -171 53 -171 151c0 120 90 182 298 182h34v14
c0 23 0 44 -2 64c-4 49 -32 81 -103 81c-72 0 -108 -39 -114 -112h-90c8 113 87 178 204 178c126 0 179 -53 188 -140c2 -21 3 -47 3 -70v-199c0 -40 2 -76 10 -135h-86zM236 52c80 0 132 53 132 149v54c-146 11 -238 -20 -238 -111c0 -64 41 -92 106 -92z" />
    <glyph glyph-name="atilde" unicode="&#xe3;" horiz-adv-x="531" 
d="M212 620c-10 0 -16 -5 -16 -20h-38c0 56 20 71 52 71c19 0 35 -4 62 -13c24 -8 35 -11 44 -11c10 0 16 5 16 20h38c0 -56 -20 -71 -52 -71c-19 0 -35 4 -62 13c-24 8 -35 11 -44 11zM378 0l-9 76l-29 -57c-36 -25 -82 -33 -133 -33c-96 0 -171 53 -171 151
c0 120 90 182 298 182h34v14c0 23 0 44 -2 64c-4 49 -32 81 -103 81c-72 0 -108 -39 -114 -112h-90c8 113 87 178 204 178c126 0 179 -53 188 -140c2 -21 3 -47 3 -70v-199c0 -40 2 -76 10 -135h-86zM236 52c80 0 132 53 132 149v54c-146 11 -238 -20 -238 -111
c0 -64 41 -92 106 -92z" />
    <glyph glyph-name="ae" unicode="&#xe6;" horiz-adv-x="888" 
d="M848 280c0 -8 0 -22 -2 -41h-382c8 -132 72 -187 150 -187c69 0 125 43 137 119h90c-21 -128 -122 -185 -231 -185c-84 0 -157 31 -199 115l-27 -54c-53 -46 -109 -61 -170 -61c-96 0 -178 53 -178 151c0 120 100 168 308 168h34v28c0 88 -32 145 -115 145
c-75 0 -111 -39 -114 -112h-90c3 113 80 178 204 178c98 0 151 -34 176 -96c40 61 100 96 182 96c146 0 227 -109 227 -264zM464 305h297c-9 110 -55 173 -142 173c-85 0 -144 -60 -155 -173zM378 209v30c-156 6 -248 -9 -248 -95c0 -64 41 -92 106 -92c80 0 142 61 142 157
z" />
    <glyph glyph-name="b" unicode="b" horiz-adv-x="611" 
d="M340 544c155 0 241 -116 241 -271c0 -196 -122 -287 -259 -287c-44 0 -100 13 -127 35l-35 52v-73h-86v735h86v-290l40 57c30 25 86 42 140 42zM322 52c93 0 165 72 165 211c0 120 -54 215 -160 215c-88 0 -167 -56 -167 -208v-29c0 -137 86 -189 162 -189z" />
    <glyph glyph-name="c" unicode="c" horiz-adv-x="529" 
d="M279 544c127 0 208 -76 224 -192h-90c-19 85 -65 126 -136 126c-83 0 -153 -65 -153 -208c0 -154 68 -218 147 -218c70 0 119 40 137 117h90c-26 -123 -114 -183 -232 -183c-134 0 -236 84 -236 278c0 179 116 280 249 280z" />
    <glyph glyph-name="cacute" unicode="&#x107;" horiz-adv-x="529" 
d="M291 580h-56l61 110h80zM279 544c127 0 208 -76 224 -192h-90c-19 85 -65 126 -136 126c-83 0 -153 -65 -153 -208c0 -154 68 -218 147 -218c70 0 119 40 137 117h90c-26 -123 -114 -183 -232 -183c-134 0 -236 84 -236 278c0 179 116 280 249 280z" />
    <glyph glyph-name="ccaron" unicode="&#x10d;" horiz-adv-x="529" 
d="M240 580l-67 110h64l33 -63l33 63h63l-67 -110h-59zM271 52c70 0 119 40 137 117h90c-26 -123 -114 -183 -232 -183c-134 0 -236 84 -236 278c0 179 116 280 249 280c127 0 208 -76 224 -192h-90c-19 85 -65 126 -136 126c-83 0 -153 -65 -153 -208
c0 -154 68 -218 147 -218z" />
    <glyph glyph-name="ccedilla" unicode="&#xe7;" horiz-adv-x="529" 
d="M271 52c70 0 119 40 137 117h90c-25 -118 -106 -178 -217 -183l-14 -26c53 -7 81 -36 81 -83c0 -56 -50 -87 -123 -87c-18 0 -36 3 -50 9v44c15 -8 32 -11 53 -11c41 0 62 17 62 44c0 34 -27 51 -96 46l36 66c-116 14 -200 100 -200 276c0 179 116 280 249 280
c127 0 208 -76 224 -192h-90c-19 85 -65 126 -136 126c-83 0 -153 -65 -153 -208c0 -154 68 -218 147 -218z" />
    <glyph glyph-name="cdotaccent" unicode="&#x10b;" horiz-adv-x="529" 
d="M269 704c31 0 55 -24 55 -55s-24 -55 -55 -55s-55 24 -55 55s24 55 55 55zM279 544c127 0 208 -76 224 -192h-90c-19 85 -65 126 -136 126c-83 0 -153 -65 -153 -208c0 -154 68 -218 147 -218c70 0 119 40 137 117h90c-26 -123 -114 -183 -232 -183
c-134 0 -236 84 -236 278c0 179 116 280 249 280z" />
    <glyph glyph-name="d" unicode="d" horiz-adv-x="615" 
d="M537 735v-735h-86v85l-40 -57c-30 -25 -86 -42 -140 -42c-155 0 -241 116 -241 271c0 196 122 287 259 287c44 0 100 -13 127 -35l35 -52v278h86zM284 52c88 0 167 56 167 208v29c0 137 -86 189 -162 189c-93 0 -165 -72 -165 -211c0 -120 54 -215 160 -215z" />
    <glyph glyph-name="eth" unicode="&#xf0;" horiz-adv-x="585" 
d="M483 662l-42 -17c69 -80 97 -190 97 -338c0 -233 -124 -321 -261 -321c-165 0 -247 116 -247 271c0 180 115 287 242 287c49 0 80 -7 117 -29l45 -60c-5 66 -28 118 -68 159l-138 -57l-20 52l109 45c-23 14 -48 26 -76 36l54 55c39 -16 73 -36 101 -58l67 27zM444 260v29
c0 137 -86 189 -162 189c-93 0 -158 -86 -158 -211c0 -132 53 -215 159 -215c88 0 161 65 161 208z" />
    <glyph glyph-name="dcaron" unicode="&#x10f;" horiz-adv-x="615" 
d="M451 735h86v-735h-86v85l-40 -57c-30 -25 -86 -42 -140 -42c-155 0 -241 116 -241 271c0 196 122 287 259 287c44 0 100 -13 127 -35l35 -52v278zM684 735v-12l-60 -132h-61l52 144h69zM284 52c88 0 167 56 167 208v29c0 137 -86 189 -162 189c-93 0 -165 -72 -165 -211
c0 -120 54 -215 160 -215z" />
    <glyph glyph-name="dcroat" unicode="&#x111;" horiz-adv-x="619" 
d="M581 595h-44v-595h-86v85l-40 -57c-30 -25 -86 -42 -140 -42c-155 0 -241 116 -241 271c0 196 122 287 259 287c44 0 100 -13 127 -35l35 -52v138h-116v56h116v84h86v-84h44v-56zM284 52c88 0 167 56 167 208v29c0 137 -86 189 -162 189c-93 0 -165 -72 -165 -211
c0 -120 54 -215 160 -215z" />
    <glyph glyph-name="e" unicode="e" horiz-adv-x="549" 
d="M509 280c0 -8 0 -22 -2 -41h-384c8 -140 74 -187 152 -187c69 0 125 43 137 119h90c-21 -128 -122 -185 -231 -185c-138 0 -241 90 -241 277c0 172 107 281 252 281c146 0 227 -109 227 -264zM280 478c-84 0 -146 -60 -156 -173h298c-8 110 -55 173 -142 173z" />
    <glyph glyph-name="eacute" unicode="&#xe9;" horiz-adv-x="549" 
d="M299 580h-56l61 110h80zM509 280c0 -8 0 -22 -2 -41h-384c8 -140 74 -187 152 -187c69 0 125 43 137 119h90c-21 -128 -122 -185 -231 -185c-138 0 -241 90 -241 277c0 172 107 281 252 281c146 0 227 -109 227 -264zM280 478c-84 0 -146 -60 -156 -173h298
c-8 110 -55 173 -142 173z" />
    <glyph glyph-name="ecaron" unicode="&#x11b;" horiz-adv-x="549" 
d="M248 580l-67 110h64l33 -63l33 63h63l-67 -110h-59zM509 280c0 -8 0 -22 -2 -41h-384c8 -140 74 -187 152 -187c69 0 125 43 137 119h90c-21 -128 -122 -185 -231 -185c-138 0 -241 90 -241 277c0 172 107 281 252 281c146 0 227 -109 227 -264zM280 478
c-84 0 -146 -60 -156 -173h298c-8 110 -55 173 -142 173z" />
    <glyph glyph-name="ecircumflex" unicode="&#xea;" horiz-adv-x="549" 
d="M244 580h-63l67 110h59l67 -110h-64l-33 63zM509 280c0 -8 0 -22 -2 -41h-384c8 -140 74 -187 152 -187c69 0 125 43 137 119h90c-21 -128 -122 -185 -231 -185c-138 0 -241 90 -241 277c0 172 107 281 252 281c146 0 227 -109 227 -264zM280 478
c-84 0 -146 -60 -156 -173h298c-8 110 -55 173 -142 173z" />
    <glyph glyph-name="edieresis" unicode="&#xeb;" horiz-adv-x="549" 
d="M204 583c-25 0 -46 21 -46 46s21 46 46 46s46 -21 46 -46s-21 -46 -46 -46zM350 583c-25 0 -46 21 -46 46s21 46 46 46s46 -21 46 -46s-21 -46 -46 -46zM509 280c0 -8 0 -22 -2 -41h-384c8 -140 74 -187 152 -187c69 0 125 43 137 119h90c-21 -128 -122 -185 -231 -185
c-138 0 -241 90 -241 277c0 172 107 281 252 281c146 0 227 -109 227 -264zM280 478c-84 0 -146 -60 -156 -173h298c-8 110 -55 173 -142 173z" />
    <glyph glyph-name="edotaccent" unicode="&#x117;" horiz-adv-x="549" 
d="M277 594c-31 0 -55 24 -55 55s24 55 55 55s55 -24 55 -55s-24 -55 -55 -55zM509 280c0 -8 0 -22 -2 -41h-384c8 -140 74 -187 152 -187c69 0 125 43 137 119h90c-21 -128 -122 -185 -231 -185c-138 0 -241 90 -241 277c0 172 107 281 252 281c146 0 227 -109 227 -264z
M280 478c-84 0 -146 -60 -156 -173h298c-8 110 -55 173 -142 173z" />
    <glyph glyph-name="egrave" unicode="&#xe8;" horiz-adv-x="549" 
d="M253 580l-85 110h80l61 -110h-56zM509 280c0 -8 0 -22 -2 -41h-384c8 -140 74 -187 152 -187c69 0 125 43 137 119h90c-21 -128 -122 -185 -231 -185c-138 0 -241 90 -241 277c0 172 107 281 252 281c146 0 227 -109 227 -264zM280 478c-84 0 -146 -60 -156 -173h298
c-8 110 -55 173 -142 173z" />
    <glyph glyph-name="emacron" unicode="&#x113;" horiz-adv-x="549" 
d="M397 604h-240v52h240v-52zM509 280c0 -8 0 -22 -2 -41h-384c8 -140 74 -187 152 -187c69 0 125 43 137 119h90c-21 -128 -122 -185 -231 -185c-138 0 -241 90 -241 277c0 172 107 281 252 281c146 0 227 -109 227 -264zM280 478c-84 0 -146 -60 -156 -173h298
c-8 110 -55 173 -142 173z" />
    <glyph glyph-name="eogonek" unicode="&#x119;" horiz-adv-x="549" 
d="M509 280c0 -8 0 -22 -2 -41h-384c8 -140 74 -187 152 -187c69 0 125 43 137 119h90c-15 -92 -71 -147 -142 -171l-21 -6c-41 -17 -73 -59 -73 -113c0 -37 15 -50 44 -50c20 0 38 6 56 20v-49c-25 -17 -56 -25 -89 -25c-55 0 -93 22 -93 85c0 55 29 97 67 125
c-128 8 -221 98 -221 276c0 172 107 281 252 281c146 0 227 -109 227 -264zM280 478c-84 0 -146 -60 -156 -173h298c-8 110 -55 173 -142 173z" />
    <glyph glyph-name="f" unicode="f" horiz-adv-x="290" 
d="M167 632c-2 -14 -3 -39 -3 -54v-52h109v-66h-109v-460h-86v460h-57v66h57v44c0 20 1 46 3 64c9 77 61 120 140 120c22 0 43 -2 61 -5v-71c-65 12 -108 -3 -115 -46z" />
    <glyph glyph-name="g" unicode="g" horiz-adv-x="615" 
d="M537 530v-400c0 -33 0 -74 -1 -103c-5 -155 -99 -237 -252 -237c-151 0 -226 63 -237 175l-1 10h87l1 -9c7 -65 59 -110 150 -110c105 0 162 60 166 162c1 25 1 42 1 58v9l-40 -57c-30 -25 -86 -42 -140 -42c-155 0 -241 116 -241 271c0 196 122 287 259 287
c44 0 100 -13 127 -35l35 -52v73h86zM284 52c88 0 167 56 167 208v29c0 137 -86 189 -162 189c-93 0 -165 -72 -165 -211c0 -120 54 -215 160 -215z" />
    <glyph glyph-name="gbreve" unicode="&#x11f;" horiz-adv-x="615" 
d="M303 566c-72 0 -102 41 -102 124h53c1 -52 20 -69 49 -69s48 17 49 69h53c0 -83 -31 -124 -102 -124zM537 530v-400c0 -33 0 -74 -1 -103c-5 -155 -99 -237 -252 -237c-151 0 -226 63 -237 175l-1 10h87l1 -9c7 -65 59 -110 150 -110c105 0 162 60 166 162
c1 25 1 42 1 58v9l-40 -57c-30 -25 -86 -42 -140 -42c-155 0 -241 116 -241 271c0 196 122 287 259 287c44 0 100 -13 127 -35l35 -52v73h86zM284 52c88 0 167 56 167 208v29c0 137 -86 189 -162 189c-93 0 -165 -72 -165 -211c0 -120 54 -215 160 -215z" />
    <glyph glyph-name="gcommaaccent" unicode="&#x123;" horiz-adv-x="615" 
d="M334 581h-69v12l60 132h61zM537 530v-400c0 -33 0 -74 -1 -103c-5 -155 -99 -237 -252 -237c-151 0 -226 63 -237 175l-1 10h87l1 -9c7 -65 59 -110 150 -110c105 0 162 60 166 162c1 25 1 42 1 58v9l-40 -57c-30 -25 -86 -42 -140 -42c-155 0 -241 116 -241 271
c0 196 122 287 259 287c44 0 100 -13 127 -35l35 -52v73h86zM284 52c88 0 167 56 167 208v29c0 137 -86 189 -162 189c-93 0 -165 -72 -165 -211c0 -120 54 -215 160 -215z" />
    <glyph glyph-name="gdotaccent" unicode="&#x121;" horiz-adv-x="615" 
d="M303 594c-31 0 -55 24 -55 55s24 55 55 55s55 -24 55 -55s-24 -55 -55 -55zM537 530v-400c0 -33 0 -74 -1 -103c-5 -155 -99 -237 -252 -237c-151 0 -226 63 -237 175l-1 10h87l1 -9c7 -65 59 -110 150 -110c105 0 162 60 166 162c1 25 1 42 1 58v9l-40 -57
c-30 -25 -86 -42 -140 -42c-155 0 -241 116 -241 271c0 196 122 287 259 287c44 0 100 -13 127 -35l35 -52v73h86zM284 52c88 0 167 56 167 208v29c0 137 -86 189 -162 189c-93 0 -165 -72 -165 -211c0 -120 54 -215 160 -215z" />
    <glyph glyph-name="h" unicode="h" horiz-adv-x="593" 
d="M520 389c2 -27 2 -48 2 -91v-298h-86v292c0 27 0 49 -2 76c-5 62 -39 110 -121 108c-83 -2 -153 -62 -153 -243v-233h-86v740h86v-301l33 61c45 35 84 44 138 44c116 0 181 -62 189 -155z" />
    <glyph glyph-name="hbar" unicode="&#x127;" horiz-adv-x="609" 
d="M536 389c2 -27 2 -48 2 -91v-298h-86v292c0 27 0 49 -2 76c-5 62 -39 110 -121 108c-83 -2 -153 -62 -153 -243v-233h-86v595h-56v56h56v89h86v-89h104v-56h-104v-156l33 61c45 35 84 44 138 44c116 0 181 -62 189 -155z" />
    <glyph glyph-name="i" unicode="i" horiz-adv-x="238" 
d="M117 704c31 0 55 -24 55 -55s-24 -55 -55 -55s-55 24 -55 55s24 55 55 55zM160 0h-86v530h86v-530z" />
    <glyph glyph-name="dotlessi" unicode="&#x131;" horiz-adv-x="238" 
d="M160 0h-86v530h86v-530z" />
    <glyph glyph-name="iacute" unicode="&#xed;" horiz-adv-x="238" 
d="M139 580h-56l61 110h80zM160 0h-86v530h86v-530z" />
    <glyph glyph-name="icircumflex" unicode="&#xee;" horiz-adv-x="238" 
d="M84 580h-63l67 110h59l67 -110h-64l-33 63zM74 530h86v-530h-86v530z" />
    <glyph glyph-name="idieresis" unicode="&#xef;" horiz-adv-x="238" 
d="M44 675c25 0 46 -21 46 -46s-21 -46 -46 -46s-46 21 -46 46s21 46 46 46zM190 675c25 0 46 -21 46 -46s-21 -46 -46 -46s-46 21 -46 46s21 46 46 46zM160 0h-86v530h86v-530z" />
    <glyph glyph-name="igrave" unicode="&#xec;" horiz-adv-x="238" 
d="M149 580h-56l-85 110h80zM160 0h-86v530h86v-530z" />
    <glyph glyph-name="ij" unicode="&#x133;" horiz-adv-x="471" 
d="M117 704c31 0 55 -24 55 -55s-24 -55 -55 -55s-55 24 -55 55s24 55 55 55zM350 704c31 0 55 -24 55 -55s-24 -55 -55 -55s-55 24 -55 55s24 55 55 55zM160 0h-86v530h86v-530zM393 530v-576c0 -20 -1 -46 -3 -64c-7 -64 -42 -100 -124 -100c-16 0 -28 0 -41 2v70
c55 -5 76 12 80 44c2 14 2 29 2 44v580h86z" />
    <glyph glyph-name="imacron" unicode="&#x12b;" horiz-adv-x="238" 
d="M237 604h-240v52h240v-52zM160 0h-86v530h86v-530z" />
    <glyph glyph-name="iogonek" unicode="&#x12f;" horiz-adv-x="238" 
d="M117 594c-31 0 -55 24 -55 55s24 55 55 55s55 -24 55 -55s-24 -55 -55 -55zM74 530h86v-530h-23c-51 -9 -94 -56 -94 -119c0 -37 15 -50 44 -50c20 0 38 6 56 20v-49c-25 -17 -56 -25 -89 -25c-55 0 -93 22 -93 85c0 76 54 127 113 149v519z" />
    <glyph glyph-name="j" unicode="j" horiz-adv-x="233" 
d="M112 704c31 0 55 -24 55 -55s-24 -55 -55 -55s-55 24 -55 55s24 55 55 55zM155 530v-576c0 -20 -1 -46 -3 -64c-7 -64 -42 -100 -124 -100c-16 0 -28 0 -41 2v70c55 -5 76 12 80 44c2 14 2 29 2 44v580h86z" />
    <glyph glyph-name="k" unicode="k" horiz-adv-x="522" 
d="M403 0l-193 224l-50 -55v-169h-86v735h86v-472l247 267h110l-247 -250l250 -280h-117z" />
    <glyph glyph-name="kcommaaccent" unicode="&#x137;" horiz-adv-x="522" 
d="M520 0h-117l-193 224l-50 -55v-169h-86v735h86v-472l247 267h110l-247 -250zM242 -51h69v-12l-60 -132h-61z" />
    <glyph glyph-name="l" unicode="l" horiz-adv-x="247" 
d="M156 735v-583c0 -16 0 -33 1 -50c2 -34 18 -45 65 -40v-62c-19 -3 -41 -4 -61 -4c-50 0 -87 16 -90 83c-1 18 -1 41 -1 70v586h86z" />
    <glyph glyph-name="lacute" unicode="&#x13a;" horiz-adv-x="247" 
d="M135 785h-56l61 110h80zM156 735v-583c0 -16 0 -33 1 -50c2 -34 18 -45 65 -40v-62c-19 -3 -41 -4 -61 -4c-50 0 -87 16 -90 83c-1 18 -1 41 -1 70v586h86z" />
    <glyph glyph-name="lcaron" unicode="&#x13e;" horiz-adv-x="247" 
d="M156 735v-583c0 -16 0 -33 1 -50c2 -34 18 -45 65 -40v-62c-19 -3 -41 -4 -61 -4c-50 0 -87 16 -90 83c-1 18 -1 41 -1 70v586h86z" />
    <glyph glyph-name="lcommaaccent" unicode="&#x13c;" horiz-adv-x="247" 
d="M156 735v-583c0 -16 0 -33 1 -50c2 -34 18 -45 65 -40v-62c-19 -3 -41 -4 -61 -4c-50 0 -87 16 -90 83c-1 18 -1 41 -1 70v586h86zM161 -63l-60 -132h-61l52 144h69v-12z" />
    <glyph glyph-name="ldot" unicode="&#x140;" horiz-adv-x="350" 
d="M156 735v-583c0 -16 0 -33 1 -50c2 -34 18 -45 65 -40v-62c-19 -3 -41 -4 -61 -4c-50 0 -87 16 -90 83c-1 18 -1 41 -1 70v586h86zM281 455c31 0 55 -24 55 -55s-24 -55 -55 -55s-55 24 -55 55s24 55 55 55z" />
    <glyph glyph-name="lslash" unicode="&#x142;" horiz-adv-x="284" 
d="M184 102c2 -34 18 -45 65 -40v-62c-19 -3 -41 -4 -61 -4c-50 0 -87 16 -90 83c-1 18 -1 41 -1 70v115l-65 -39v67l65 39v404h86v-354l65 39v-67l-65 -39v-162c0 -16 0 -33 1 -50z" />
    <glyph glyph-name="m" unicode="m" horiz-adv-x="855" 
d="M779 415c4 -27 5 -48 5 -91v-324h-86v284c0 47 -1 76 -4 103c-8 60 -46 89 -106 89c-67 0 -116 -53 -116 -214v-262h-86v284c0 47 -1 76 -4 103c-8 60 -46 89 -106 89c-67 0 -116 -53 -116 -214v-262h-86v530h86v-77l34 60c27 22 65 31 112 31c81 0 133 -41 153 -99
l47 68c27 22 65 31 112 31c95 0 149 -56 161 -129z" />
    <glyph glyph-name="n" unicode="n" horiz-adv-x="593" 
d="M520 389c2 -27 2 -48 2 -91v-298h-86v292c0 27 0 49 -2 76c-5 62 -39 108 -121 108c-83 0 -153 -62 -153 -243v-233h-86v530h86v-91l33 61c45 35 84 44 138 44c116 0 181 -62 189 -155z" />
    <glyph glyph-name="nacute" unicode="&#x144;" horiz-adv-x="593" 
d="M412 690l-85 -110h-56l61 110h80zM520 389c2 -27 2 -48 2 -91v-298h-86v292c0 27 0 49 -2 76c-5 62 -39 108 -121 108c-83 0 -153 -62 -153 -243v-233h-86v530h86v-91l33 61c45 35 84 44 138 44c116 0 181 -62 189 -155z" />
    <glyph glyph-name="ncaron" unicode="&#x148;" horiz-adv-x="593" 
d="M335 580h-59l-67 110h64l33 -63l33 63h63zM520 389c2 -27 2 -48 2 -91v-298h-86v292c0 27 0 49 -2 76c-5 62 -39 108 -121 108c-83 0 -153 -62 -153 -243v-233h-86v530h86v-91l33 61c45 35 84 44 138 44c116 0 181 -62 189 -155z" />
    <glyph glyph-name="ncommaaccent" unicode="&#x146;" horiz-adv-x="593" 
d="M520 389c2 -27 2 -48 2 -91v-298h-86v292c0 27 0 49 -2 76c-5 62 -39 108 -121 108c-83 0 -153 -62 -153 -243v-233h-86v530h86v-91l33 61c45 35 84 44 138 44c116 0 181 -62 189 -155zM213 -195l52 144h69v-12l-60 -132h-61z" />
    <glyph glyph-name="eng" unicode="&#x14b;" horiz-adv-x="593" 
d="M520 389c2 -27 2 -48 2 -91v-352c0 -18 0 -27 -1 -41c-7 -94 -67 -115 -166 -115v70c54 0 76 11 80 53c1 8 1 17 1 27v352c0 27 0 49 -2 76c-5 62 -39 108 -121 108c-83 0 -153 -62 -153 -243v-233h-86v530h86v-91l33 61c45 35 84 44 138 44c116 0 181 -62 189 -155z" />
    <glyph glyph-name="ntilde" unicode="&#xf1;" horiz-adv-x="593" 
d="M253 620c-10 0 -16 -5 -16 -20h-38c0 56 20 71 52 71c19 0 35 -4 62 -13c24 -8 35 -11 44 -11c10 0 16 5 16 20h38c0 -56 -20 -71 -52 -71c-19 0 -35 4 -62 13c-24 8 -35 11 -44 11zM520 389c2 -27 2 -48 2 -91v-298h-86v292c0 27 0 49 -2 76c-5 62 -39 108 -121 108
c-83 0 -153 -62 -153 -243v-233h-86v530h86v-91l33 61c45 35 84 44 138 44c116 0 181 -62 189 -155z" />
    <glyph glyph-name="o" unicode="o" horiz-adv-x="586" 
d="M293 544c180 0 263 -129 263 -279c0 -149 -83 -279 -263 -279s-263 130 -263 279c0 150 83 279 263 279zM293 52c107 0 169 89 169 213c0 125 -62 213 -169 213s-169 -88 -169 -213c0 -124 62 -213 169 -213z" />
    <glyph glyph-name="oacute" unicode="&#xf3;" horiz-adv-x="586" 
d="M315 580h-56l61 110h80zM293 544c180 0 263 -129 263 -279c0 -149 -83 -279 -263 -279s-263 130 -263 279c0 150 83 279 263 279zM293 52c107 0 169 89 169 213c0 125 -62 213 -169 213s-169 -88 -169 -213c0 -124 62 -213 169 -213z" />
    <glyph glyph-name="ocircumflex" unicode="&#xf4;" horiz-adv-x="586" 
d="M260 580h-63l67 110h59l67 -110h-64l-33 63zM293 544c180 0 263 -129 263 -279c0 -149 -83 -279 -263 -279s-263 130 -263 279c0 150 83 279 263 279zM293 52c107 0 169 89 169 213c0 125 -62 213 -169 213s-169 -88 -169 -213c0 -124 62 -213 169 -213z" />
    <glyph glyph-name="odieresis" unicode="&#xf6;" horiz-adv-x="586" 
d="M220 583c-25 0 -46 21 -46 46s21 46 46 46s46 -21 46 -46s-21 -46 -46 -46zM366 583c-25 0 -46 21 -46 46s21 46 46 46s46 -21 46 -46s-21 -46 -46 -46zM293 544c180 0 263 -129 263 -279c0 -149 -83 -279 -263 -279s-263 130 -263 279c0 150 83 279 263 279zM293 52
c107 0 169 89 169 213c0 125 -62 213 -169 213s-169 -88 -169 -213c0 -124 62 -213 169 -213z" />
    <glyph glyph-name="ograve" unicode="&#xf2;" horiz-adv-x="586" 
d="M269 580l-85 110h80l61 -110h-56zM293 544c180 0 263 -129 263 -279c0 -149 -83 -279 -263 -279s-263 130 -263 279c0 150 83 279 263 279zM293 52c107 0 169 89 169 213c0 125 -62 213 -169 213s-169 -88 -169 -213c0 -124 62 -213 169 -213z" />
    <glyph glyph-name="ohungarumlaut" unicode="&#x151;" horiz-adv-x="586" 
d="M259 580h-56l61 110h80zM325 580l61 110h80l-85 -110h-56zM293 544c180 0 263 -129 263 -279c0 -149 -83 -279 -263 -279s-263 130 -263 279c0 150 83 279 263 279zM293 52c107 0 169 89 169 213c0 125 -62 213 -169 213s-169 -88 -169 -213c0 -124 62 -213 169 -213z
" />
    <glyph glyph-name="omacron" unicode="&#x14d;" horiz-adv-x="586" 
d="M413 604h-240v52h240v-52zM293 544c180 0 263 -129 263 -279c0 -149 -83 -279 -263 -279s-263 130 -263 279c0 150 83 279 263 279zM293 52c107 0 169 89 169 213c0 125 -62 213 -169 213s-169 -88 -169 -213c0 -124 62 -213 169 -213z" />
    <glyph glyph-name="oslash" unicode="&#xf8;" horiz-adv-x="620" 
d="M594 508l-74 -74c30 -47 45 -106 45 -169c0 -149 -83 -279 -263 -279c-73 0 -131 22 -173 57l-62 -62l-41 41l64 64c-34 49 -51 112 -51 179c0 150 83 279 263 279c79 0 139 -25 181 -65l70 70zM133 265c0 -43 7 -82 22 -114l270 270c-29 36 -71 57 -123 57
c-107 0 -169 -88 -169 -213zM471 265c0 38 -6 73 -17 103l-267 -267c28 -31 67 -49 115 -49c107 0 169 89 169 213z" />
    <glyph glyph-name="otilde" unicode="&#xf5;" horiz-adv-x="586" 
d="M241 620c-10 0 -16 -5 -16 -20h-38c0 56 20 71 52 71c19 0 35 -4 62 -13c24 -8 35 -11 44 -11c10 0 16 5 16 20h38c0 -56 -20 -71 -52 -71c-19 0 -35 4 -62 13c-24 8 -35 11 -44 11zM293 544c180 0 263 -129 263 -279c0 -149 -83 -279 -263 -279s-263 130 -263 279
c0 150 83 279 263 279zM293 52c107 0 169 89 169 213c0 125 -62 213 -169 213s-169 -88 -169 -213c0 -124 62 -213 169 -213z" />
    <glyph glyph-name="oe" unicode="&#x153;" horiz-adv-x="981" 
d="M941 280c0 -8 0 -22 -2 -41h-382c8 -132 72 -187 150 -187c69 0 125 43 137 119h90c-21 -128 -122 -185 -231 -185c-83 0 -155 36 -197 126c-42 -85 -112 -126 -213 -126c-180 0 -263 130 -263 279c0 150 83 279 263 279c103 0 175 -42 217 -129c44 91 117 129 204 129
c146 0 227 -109 227 -264zM293 52c107 0 169 89 169 213c0 125 -62 213 -169 213s-169 -88 -169 -213c0 -124 62 -213 169 -213zM557 305h297c-9 110 -55 173 -142 173c-85 0 -144 -60 -155 -173z" />
    <glyph glyph-name="p" unicode="p" horiz-adv-x="611" 
d="M340 544c155 0 241 -116 241 -271c0 -196 -122 -287 -259 -287c-44 0 -100 13 -127 35l-35 52v-269h-86v726h86v-85l40 57c30 25 86 42 140 42zM322 52c93 0 165 72 165 211c0 120 -54 215 -160 215c-88 0 -167 -56 -167 -208v-29c0 -137 86 -189 162 -189z" />
    <glyph glyph-name="thorn" unicode="&#xfe;" horiz-adv-x="611" 
d="M340 544c155 0 241 -116 241 -271c0 -196 -122 -287 -259 -287c-44 0 -100 13 -127 35l-35 52v-269h-86v931h86v-290l40 57c30 25 86 42 140 42zM322 52c93 0 165 72 165 211c0 120 -54 215 -160 215c-88 0 -167 -56 -167 -208v-29c0 -137 86 -189 162 -189z" />
    <glyph glyph-name="q" unicode="q" horiz-adv-x="615" 
d="M537 530v-726h-86v281l-40 -57c-30 -25 -86 -42 -140 -42c-155 0 -241 116 -241 271c0 196 122 287 259 287c44 0 100 -13 127 -35l35 -52v73h86zM284 52c88 0 167 56 167 208v29c0 137 -86 189 -162 189c-93 0 -165 -72 -165 -211c0 -120 54 -215 160 -215z" />
    <glyph glyph-name="r" unicode="r" horiz-adv-x="330" 
d="M282 542c14 0 26 -2 36 -7v-65c-90 6 -158 -47 -158 -168v-302h-86v530h86v-83l48 71c22 15 49 24 74 24z" />
    <glyph glyph-name="racute" unicode="&#x155;" horiz-adv-x="330" 
d="M206 580h-56l61 110h80zM282 542c14 0 26 -2 36 -7v-65c-90 6 -158 -47 -158 -168v-302h-86v530h86v-83l48 71c22 15 49 24 74 24z" />
    <glyph glyph-name="rcaron" unicode="&#x159;" horiz-adv-x="330" 
d="M155 580l-67 110h64l33 -63l33 63h63l-67 -110h-59zM282 542c14 0 26 -2 36 -7v-65c-90 6 -158 -47 -158 -168v-302h-86v530h86v-83l48 71c22 15 49 24 74 24z" />
    <glyph glyph-name="rcommaaccent" unicode="&#x157;" horiz-adv-x="330" 
d="M282 542c14 0 26 -2 36 -7v-65c-90 6 -158 -47 -158 -168v-302h-86v530h86v-83l48 71c22 15 49 24 74 24zM86 -51h69v-12l-60 -132h-61z" />
    <glyph glyph-name="s" unicode="s" horiz-adv-x="459" 
d="M228 544c119 0 184 -68 195 -165h-90c-12 62 -50 99 -112 99c-60 0 -88 -33 -88 -79c0 -53 44 -74 116 -93c122 -32 180 -80 180 -170c0 -100 -85 -150 -197 -150c-109 0 -192 50 -208 170h90c14 -77 63 -104 124 -104c57 0 103 26 103 77s-36 78 -125 102
c-95 26 -171 65 -171 158c0 97 74 155 183 155z" />
    <glyph glyph-name="sacute" unicode="&#x15b;" horiz-adv-x="459" 
d="M339 690l-85 -110h-56l61 110h80zM228 544c119 0 184 -68 195 -165h-90c-12 62 -50 99 -112 99c-60 0 -88 -33 -88 -79c0 -53 44 -74 116 -93c122 -32 180 -80 180 -170c0 -100 -85 -150 -197 -150c-109 0 -192 50 -208 170h90c14 -77 63 -104 124 -104
c57 0 103 26 103 77s-36 78 -125 102c-95 26 -171 65 -171 158c0 97 74 155 183 155z" />
    <glyph glyph-name="scaron" unicode="&#x161;" horiz-adv-x="459" 
d="M262 580h-59l-67 110h64l33 -63l33 63h63zM249 306c122 -32 180 -80 180 -170c0 -100 -85 -150 -197 -150c-109 0 -192 50 -208 170h90c14 -77 63 -104 124 -104c57 0 103 26 103 77s-36 78 -125 102c-95 26 -171 65 -171 158c0 97 74 155 183 155
c119 0 184 -68 195 -165h-90c-12 62 -50 99 -112 99c-60 0 -88 -33 -88 -79c0 -53 44 -74 116 -93z" />
    <glyph glyph-name="scedilla" unicode="&#x15f;" horiz-adv-x="459" 
d="M429 136c0 -91 -70 -140 -166 -149l-15 -27c53 -7 81 -36 81 -83c0 -56 -50 -87 -123 -87c-18 0 -36 3 -50 9v44c15 -8 32 -11 53 -11c41 0 62 17 62 44c0 34 -27 51 -96 46l35 65c-98 6 -171 57 -186 169h90c14 -77 63 -104 124 -104c57 0 103 26 103 77
s-36 78 -125 102c-95 26 -171 65 -171 158c0 97 74 155 183 155c119 0 184 -68 195 -165h-90c-12 62 -50 99 -112 99c-60 0 -88 -33 -88 -79c0 -53 44 -74 116 -93c122 -32 180 -80 180 -170z" />
    <glyph glyph-name="scommaaccent" unicode="&#x219;" horiz-adv-x="459" 
d="M228 544c119 0 184 -68 195 -165h-90c-12 62 -50 99 -112 99c-60 0 -88 -33 -88 -79c0 -53 44 -74 116 -93c122 -32 180 -80 180 -170c0 -100 -85 -150 -197 -150c-109 0 -192 50 -208 170h90c14 -77 63 -104 124 -104c57 0 103 26 103 77s-36 78 -125 102
c-95 26 -171 65 -171 158c0 97 74 155 183 155zM278 -51v-12l-60 -132h-61l52 144h69z" />
    <glyph glyph-name="germandbls" unicode="&#xdf;" horiz-adv-x="608" 
d="M306 754c136 0 220 -70 220 -175c0 -29 -8 -66 -31 -103c-51 -27 -77 -51 -77 -78c0 -36 19 -58 65 -96c58 -47 85 -88 85 -160c0 -92 -85 -146 -188 -146c-33 0 -59 2 -98 10v69c44 -11 72 -13 94 -13c66 0 96 35 96 87c0 33 -10 61 -64 108c-62 54 -86 84 -86 141
c0 47 27 85 90 116c14 24 18 41 18 64c0 66 -42 108 -128 108c-75 0 -133 -48 -140 -144c-1 -14 -2 -33 -2 -54v-488h-86v480c0 20 1 46 2 64c8 143 108 210 230 210z" />
    <glyph glyph-name="t" unicode="t" horiz-adv-x="313" 
d="M177 460v-305c0 -18 0 -27 1 -41c4 -51 25 -62 92 -54v-63c-25 -4 -49 -5 -73 -5c-66 0 -100 27 -105 93c-1 14 -1 36 -1 66v309h-71v66h71v123h86v-123h99v-66h-99z" />
    <glyph glyph-name="tbar" unicode="&#x167;" horiz-adv-x="313" 
d="M177 460v-112h83v-52h-83v-141c0 -18 0 -27 1 -41c4 -51 25 -62 92 -54v-63c-25 -4 -49 -5 -73 -5c-66 0 -100 27 -105 93c-1 14 -1 36 -1 66v145h-71v52h71v112h-71v66h71v123h86v-123h99v-66h-99z" />
    <glyph glyph-name="tcaron" unicode="&#x165;" horiz-adv-x="303" 
d="M337 735v-12l-60 -132h-61l52 144h69zM177 526h99v-66h-99v-305c0 -18 0 -27 1 -41c4 -51 25 -62 92 -54v-63c-25 -4 -49 -5 -73 -5c-66 0 -100 27 -105 93c-1 14 -1 36 -1 66v309h-71v66h71v123h86v-123z" />
    <glyph glyph-name="tcedilla" unicode="&#x163;" horiz-adv-x="313" 
d="M177 460v-305c0 -18 0 -27 1 -41c4 -51 25 -62 92 -54v-63c-24 -4 -47 -5 -70 -5l-18 -32c53 -7 81 -36 81 -83c0 -56 -50 -87 -123 -87c-18 0 -36 3 -50 9v44c15 -8 32 -11 53 -11c41 0 62 17 62 44c0 34 -27 51 -96 46l41 76c-35 12 -54 39 -58 87c-1 14 -1 36 -1 66
v309h-71v66h71v123h86v-123h99v-66h-99z" />
    <glyph glyph-name="uni021B" unicode="&#x21b;" horiz-adv-x="313" 
d="M177 460v-305c0 -18 0 -27 1 -41c4 -51 25 -62 92 -54v-63c-25 -4 -49 -5 -73 -5c-66 0 -100 27 -105 93c-1 14 -1 36 -1 66v309h-71v66h71v123h86v-123h99v-66h-99zM143 -51h69v-12l-60 -132h-61z" />
    <glyph glyph-name="u" unicode="u" horiz-adv-x="592" 
d="M514 530v-530h-86v90l-33 -62c-45 -33 -84 -42 -138 -42c-110 0 -174 62 -186 135c-4 27 -5 48 -5 91v318h86v-302c0 -17 1 -46 4 -73c8 -60 51 -101 123 -101c83 0 149 62 149 243v233h86z" />
    <glyph glyph-name="uacute" unicode="&#xfa;" horiz-adv-x="592" 
d="M312 580h-56l61 110h80zM514 530v-530h-86v90l-33 -62c-45 -33 -84 -42 -138 -42c-110 0 -174 62 -186 135c-4 27 -5 48 -5 91v318h86v-302c0 -17 1 -46 4 -73c8 -60 51 -101 123 -101c83 0 149 62 149 243v233h86z" />
    <glyph glyph-name="ucircumflex" unicode="&#xfb;" horiz-adv-x="592" 
d="M257 580h-63l67 110h59l67 -110h-64l-33 63zM514 530v-530h-86v90l-33 -62c-45 -33 -84 -42 -138 -42c-110 0 -174 62 -186 135c-4 27 -5 48 -5 91v318h86v-302c0 -17 1 -46 4 -73c8 -60 51 -101 123 -101c83 0 149 62 149 243v233h86z" />
    <glyph glyph-name="udieresis" unicode="&#xfc;" horiz-adv-x="592" 
d="M217 583c-25 0 -46 21 -46 46s21 46 46 46s46 -21 46 -46s-21 -46 -46 -46zM363 583c-25 0 -46 21 -46 46s21 46 46 46s46 -21 46 -46s-21 -46 -46 -46zM514 530v-530h-86v90l-33 -62c-45 -33 -84 -42 -138 -42c-110 0 -174 62 -186 135c-4 27 -5 48 -5 91v318h86v-302
c0 -17 1 -46 4 -73c8 -60 51 -101 123 -101c83 0 149 62 149 243v233h86z" />
    <glyph glyph-name="ugrave" unicode="&#xf9;" horiz-adv-x="592" 
d="M266 580l-85 110h80l61 -110h-56zM514 530v-530h-86v90l-33 -62c-45 -33 -84 -42 -138 -42c-110 0 -174 62 -186 135c-4 27 -5 48 -5 91v318h86v-302c0 -17 1 -46 4 -73c8 -60 51 -101 123 -101c83 0 149 62 149 243v233h86z" />
    <glyph glyph-name="uhungarumlaut" unicode="&#x171;" horiz-adv-x="592" 
d="M256 580h-56l61 110h80zM322 580l61 110h80l-85 -110h-56zM514 530v-530h-86v90l-33 -62c-45 -33 -84 -42 -138 -42c-110 0 -174 62 -186 135c-4 27 -5 48 -5 91v318h86v-302c0 -17 1 -46 4 -73c8 -60 51 -101 123 -101c83 0 149 62 149 243v233h86z" />
    <glyph glyph-name="umacron" unicode="&#x16b;" horiz-adv-x="592" 
d="M410 604h-240v52h240v-52zM514 530v-530h-86v90l-33 -62c-45 -33 -84 -42 -138 -42c-110 0 -174 62 -186 135c-4 27 -5 48 -5 91v318h86v-302c0 -17 1 -46 4 -73c8 -60 51 -101 123 -101c83 0 149 62 149 243v233h86z" />
    <glyph glyph-name="uogonek" unicode="&#x173;" horiz-adv-x="592" 
d="M514 0h-23c-51 -9 -94 -56 -94 -119c0 -37 15 -50 44 -50c20 0 38 6 56 20v-49c-25 -17 -56 -25 -89 -25c-55 0 -93 22 -93 85c0 76 54 127 113 149v79l-33 -62c-45 -33 -84 -42 -138 -42c-110 0 -174 62 -186 135c-4 27 -5 48 -5 91v318h86v-302c0 -17 1 -46 4 -73
c8 -60 51 -101 123 -101c83 0 149 62 149 243v233h86v-530z" />
    <glyph glyph-name="uring" unicode="&#x16f;" horiz-adv-x="592" 
d="M290 565c-53 0 -91 35 -91 84s38 84 91 84s91 -35 91 -84s-38 -84 -91 -84zM290 697c-24 0 -41 -18 -41 -48s17 -48 41 -48s41 18 41 48s-17 48 -41 48zM514 530v-530h-86v90l-33 -62c-45 -33 -84 -42 -138 -42c-110 0 -174 62 -186 135c-4 27 -5 48 -5 91v318h86v-302
c0 -17 1 -46 4 -73c8 -60 51 -101 123 -101c83 0 149 62 149 243v233h86z" />
    <glyph glyph-name="v" unicode="v" horiz-adv-x="514" 
d="M508 530l-201 -530h-105l-201 530h95l162 -467l159 467h91z" />
    <glyph glyph-name="w" unicode="w" horiz-adv-x="785" 
d="M779 530l-169 -530h-102l-118 446l-118 -446h-102l-169 530h99l123 -448l116 448h107l118 -445l123 445h92z" />
    <glyph glyph-name="wacute" unicode="&#x1e83;" horiz-adv-x="785" 
d="M414 580h-56l61 110h80zM779 530l-169 -530h-102l-118 446l-118 -446h-102l-169 530h99l123 -448l116 448h107l118 -445l123 445h92z" />
    <glyph glyph-name="wcircumflex" unicode="&#x175;" horiz-adv-x="785" 
d="M359 580h-63l67 110h59l67 -110h-64l-33 63zM779 530l-169 -530h-102l-118 446l-118 -446h-102l-169 530h99l123 -448l116 448h107l118 -445l123 445h92z" />
    <glyph glyph-name="wdieresis" unicode="&#x1e85;" horiz-adv-x="785" 
d="M319 583c-25 0 -46 21 -46 46s21 46 46 46s46 -21 46 -46s-21 -46 -46 -46zM465 583c-25 0 -46 21 -46 46s21 46 46 46s46 -21 46 -46s-21 -46 -46 -46zM779 530l-169 -530h-102l-118 446l-118 -446h-102l-169 530h99l123 -448l116 448h107l118 -445l123 445h92z" />
    <glyph glyph-name="wgrave" unicode="&#x1e81;" horiz-adv-x="785" 
d="M368 580l-85 110h80l61 -110h-56zM779 530l-169 -530h-102l-118 446l-118 -446h-102l-169 530h99l123 -448l116 448h107l118 -445l123 445h92z" />
    <glyph glyph-name="x" unicode="x" horiz-adv-x="482" 
d="M282 270l188 -270h-100l-139 213l-138 -213h-99l190 268l-183 262h102l133 -205l133 205h99z" />
    <glyph glyph-name="y" unicode="y" horiz-adv-x="513" 
d="M507 530l-218 -575c-43 -112 -100 -165 -186 -165c-19 0 -31 0 -44 2v70c13 -1 22 -1 31 -1c53 0 88 23 115 93l7 19l-211 557h97l158 -466l157 466h94z" />
    <glyph glyph-name="yacute" unicode="&#xfd;" horiz-adv-x="513" 
d="M279 580h-56l61 110h80zM507 530l-218 -575c-43 -112 -100 -165 -186 -165c-19 0 -31 0 -44 2v70c13 -1 22 -1 31 -1c53 0 88 23 115 93l7 19l-211 557h97l158 -466l157 466h94z" />
    <glyph glyph-name="ycircumflex" unicode="&#x177;" horiz-adv-x="513" 
d="M224 580h-63l67 110h59l67 -110h-64l-33 63zM507 530l-218 -575c-43 -112 -100 -165 -186 -165c-19 0 -31 0 -44 2v70c13 -1 22 -1 31 -1c53 0 88 23 115 93l7 19l-211 557h97l158 -466l157 466h94z" />
    <glyph glyph-name="ydieresis" unicode="&#xff;" horiz-adv-x="513" 
d="M184 583c-25 0 -46 21 -46 46s21 46 46 46s46 -21 46 -46s-21 -46 -46 -46zM330 583c-25 0 -46 21 -46 46s21 46 46 46s46 -21 46 -46s-21 -46 -46 -46zM507 530l-218 -575c-43 -112 -100 -165 -186 -165c-19 0 -31 0 -44 2v70c13 -1 22 -1 31 -1c53 0 88 23 115 93l7 19
l-211 557h97l158 -466l157 466h94z" />
    <glyph glyph-name="ygrave" unicode="&#x1ef3;" horiz-adv-x="513" 
d="M233 580l-85 110h80l61 -110h-56zM507 530l-218 -575c-43 -112 -100 -165 -186 -165c-19 0 -31 0 -44 2v70c13 -1 22 -1 31 -1c53 0 88 23 115 93l7 19l-211 557h97l158 -466l157 466h94z" />
    <glyph glyph-name="z" unicode="z" horiz-adv-x="462" 
d="M433 68v-68h-413v66l308 392h-286v68h386v-69l-306 -389h311z" />
    <glyph glyph-name="zacute" unicode="&#x17a;" horiz-adv-x="462" 
d="M252 580h-56l61 110h80zM433 68v-68h-413v66l308 392h-286v68h386v-69l-306 -389h311z" />
    <glyph glyph-name="zcaron" unicode="&#x17e;" horiz-adv-x="462" 
d="M201 580l-67 110h64l33 -63l33 63h63l-67 -110h-59zM433 68v-68h-413v66l308 392h-286v68h386v-69l-306 -389h311z" />
    <glyph glyph-name="zdotaccent" unicode="&#x17c;" horiz-adv-x="462" 
d="M230 594c-31 0 -55 24 -55 55s24 55 55 55s55 -24 55 -55s-24 -55 -55 -55zM433 68v-68h-413v66l308 392h-286v68h386v-69l-306 -389h311z" />
    <glyph glyph-name="zero" unicode="0" 
d="M290 704c190 0 249 -158 249 -359c0 -200 -59 -359 -249 -359s-249 159 -249 359c0 201 59 359 249 359zM290 54c110 0 153 111 153 291c0 181 -43 291 -153 291s-153 -110 -153 -291c0 -180 43 -291 153 -291z" />
    <glyph glyph-name="one" unicode="1" 
d="M406 690v-690h-86v599l-190 -113v91l146 91c27 17 51 22 75 22h55z" />
    <glyph glyph-name="two" unicode="2" 
d="M185 70h338v-70h-463v49l250 255c81 83 120 133 120 200c0 71 -41 132 -124 132c-89 0 -132 -55 -142 -152l-1 -10h-86l1 10c14 144 100 220 238 220c141 0 210 -87 210 -190c0 -94 -51 -158 -168 -273z" />
    <glyph glyph-name="three" unicode="3" 
d="M396 367c85 -24 138 -85 138 -175c0 -129 -117 -206 -250 -206c-131 0 -223 59 -238 208l-1 10h86l1 -10c10 -97 76 -140 160 -140c85 0 146 49 146 133c0 81 -52 127 -164 127h-17v70h17c82 0 148 48 148 135c0 69 -49 117 -122 117s-132 -44 -141 -135l-1 -10h-86l1 10
c13 125 98 203 238 203c127 0 207 -71 207 -175c0 -79 -50 -141 -122 -162z" />
    <glyph glyph-name="four" unicode="4" 
d="M548 174h-87v-174h-86v174h-342v43l342 473h86v-446h87v-70zM375 244v331c-16 -27 -34 -56 -57 -88l-176 -243h233z" />
    <glyph glyph-name="five" unicode="5" 
d="M307 455c154 0 230 -100 230 -231c0 -152 -118 -238 -246 -238c-139 0 -220 67 -233 197l-1 10h86l2 -10c16 -79 59 -129 145 -129c91 0 151 60 151 164s-55 169 -147 169c-64 0 -110 -27 -144 -98h-82l48 401h392v-70h-322l-31 -240l43 46c33 20 67 29 109 29z" />
    <glyph glyph-name="six" unicode="6" 
d="M302 466c144 0 229 -97 229 -234c0 -147 -104 -246 -244 -246c-154 0 -244 97 -244 326c0 278 125 392 267 392c118 0 202 -73 213 -186l1 -10h-92l-2 10c-16 78 -57 118 -127 118c-93 0 -159 -75 -166 -276l39 62c37 31 76 44 126 44zM287 54c86 0 148 68 148 168
c0 96 -43 176 -148 176c-78 0 -144 -59 -144 -174c0 -96 57 -170 144 -170z" />
    <glyph glyph-name="seven" unicode="7" 
d="M538 690v-40l-344 -650h-92l331 620h-383v70h488z" />
    <glyph glyph-name="eight" unicode="8" 
d="M404 365c74 -24 132 -89 132 -172c0 -151 -125 -208 -246 -208c-131 0 -246 57 -246 208c0 83 63 148 137 171c-62 24 -107 79 -107 154c0 114 87 186 222 186s222 -72 222 -186c0 -76 -50 -130 -114 -153zM296 636c-87 0 -129 -55 -129 -121c0 -70 42 -123 128 -123
s130 53 130 123c0 66 -42 121 -129 121zM292 53c101 0 148 57 148 136c0 71 -42 135 -149 135s-151 -64 -151 -135c0 -79 51 -136 152 -136z" />
    <glyph glyph-name="nine" unicode="9" 
d="M293 704c154 0 244 -97 244 -326c0 -278 -125 -392 -267 -392c-118 0 -202 73 -213 186l-1 10h92l2 -10c16 -78 57 -118 127 -118c93 0 159 75 166 276l-39 -62c-37 -31 -76 -44 -126 -44c-144 0 -229 97 -229 234c0 147 104 246 244 246zM293 292c78 0 144 59 144 174
c0 96 -57 170 -144 170c-86 0 -148 -68 -148 -168c0 -96 43 -176 148 -176z" />
    <glyph glyph-name="fraction" unicode="&#x2044;" horiz-adv-x="235" 
d="M-63 0h-87l448 690h87z" />
    <glyph glyph-name="asterisk" unicode="*" horiz-adv-x="560" 
d="M301 296l155 61l19 -59l-159 -41l113 -138l-50 -37l-99 153l-99 -153l-50 37l113 138l-159 41l19 59l155 -61l-10 179h62z" />
    <glyph glyph-name="backslash" unicode="\" horiz-adv-x="303" 
d="M308 -30h-62l-251 750h62z" />
    <glyph glyph-name="bullet" unicode="&#x2022;" horiz-adv-x="364" 
d="M182 409c59 0 104 -45 104 -104s-45 -104 -104 -104s-104 45 -104 104s45 104 104 104z" />
    <glyph glyph-name="colon" unicode=":" horiz-adv-x="220" 
d="M101 544c37 0 64 -27 64 -64s-27 -64 -64 -64s-64 27 -64 64s27 64 64 64zM101 114c37 0 64 -27 64 -64s-27 -64 -64 -64s-64 27 -64 64s27 64 64 64z" />
    <glyph glyph-name="comma" unicode="," horiz-adv-x="220" 
d="M140 90l-90 -210h-81l78 220h93v-10z" />
    <glyph glyph-name="ellipsis" unicode="&#x2026;" horiz-adv-x="620" 
d="M101 114c37 0 64 -27 64 -64s-27 -64 -64 -64s-64 27 -64 64s27 64 64 64zM301 114c37 0 64 -27 64 -64s-27 -64 -64 -64s-64 27 -64 64s27 64 64 64zM501 114c37 0 64 -27 64 -64s-27 -64 -64 -64s-64 27 -64 64s27 64 64 64z" />
    <glyph glyph-name="exclam" unicode="!" horiz-adv-x="242" 
d="M160 180h-78l-12 510h102zM121 114c37 0 64 -27 64 -64s-27 -64 -64 -64s-64 27 -64 64s27 64 64 64z" />
    <glyph glyph-name="exclamdown" unicode="&#xa1;" horiz-adv-x="242" 
d="M121 416c-37 0 -64 27 -64 64s27 64 64 64s64 -27 64 -64s-27 -64 -64 -64zM82 350h78l12 -510h-102z" />
    <glyph glyph-name="numbersign" unicode="#" 
d="M408 415l-29 -140h101v-56h-113l-47 -219h-58l47 219h-91l-47 -219h-58l47 219h-90v56h102l29 140h-101v56h113l47 219h58l-47 -219h91l47 219h58l-47 -219h90v-56h-102zM351 415h-91l-30 -140h91z" />
    <glyph glyph-name="period" unicode="." horiz-adv-x="220" 
d="M101 114c37 0 64 -27 64 -64s-27 -64 -64 -64s-64 27 -64 64s27 64 64 64z" />
    <glyph glyph-name="periodcentered" unicode="&#xb7;" horiz-adv-x="202" 
d="M101 374c39 0 69 -30 69 -69s-30 -69 -69 -69s-69 30 -69 69s30 69 69 69z" />
    <glyph glyph-name="question" unicode="?" horiz-adv-x="499" 
d="M260 704c134 0 208 -80 208 -183c0 -70 -34 -133 -105 -204c-61 -61 -76 -88 -79 -137h-86c6 59 24 96 80 160c71 81 94 121 94 181c0 69 -43 115 -115 115c-75 0 -126 -49 -132 -142h-90c4 128 94 210 225 210zM241 114c37 0 64 -27 64 -64s-27 -64 -64 -64
s-64 27 -64 64s27 64 64 64z" />
    <glyph glyph-name="questiondown" unicode="&#xbf;" horiz-adv-x="491" 
d="M293 416c-37 0 -64 27 -64 64s27 64 64 64s64 -27 64 -64s-27 -64 -64 -64zM274 -174c-134 0 -208 80 -208 183c0 70 34 133 105 204c61 61 76 88 79 137h86c-6 -59 -24 -96 -80 -160c-71 -81 -94 -121 -94 -181c0 -69 43 -115 115 -115c75 0 126 49 132 142h90
c-4 -128 -94 -210 -225 -210z" />
    <glyph glyph-name="quotedbl" unicode="&#x22;" horiz-adv-x="339" 
d="M166 485h-70l-10 250h90zM306 485h-70l-10 250h90z" />
    <glyph glyph-name="quotesingle" unicode="'" horiz-adv-x="176" 
d="M123 485h-70l-10 250h90z" />
    <glyph glyph-name="semicolon" unicode=";" horiz-adv-x="220" 
d="M101 544c37 0 64 -27 64 -64s-27 -64 -64 -64s-64 27 -64 64s27 64 64 64zM141 98l-90 -218h-82l78 230h94v-12z" />
    <glyph glyph-name="slash" unicode="/" horiz-adv-x="303" 
d="M57 -30h-62l251 750h62z" />
    <glyph glyph-name="underscore" unicode="_" horiz-adv-x="500" 
d="M450 -86h-400v56h400v-56z" />
    <glyph glyph-name="braceleft" unicode="{" horiz-adv-x="303" 
d="M270 724h-12c-59 0 -77 -18 -77 -49c0 -23 2 -36 11 -100c10 -70 13 -92 13 -123c0 -58 -32 -94 -87 -101c54 -7 87 -45 87 -103c0 -31 -3 -53 -13 -123c-9 -64 -11 -77 -11 -100c0 -31 18 -49 77 -49h12v-56h-11c-86 0 -136 24 -136 106c0 21 2 38 12 109
c8 55 11 82 11 110c0 44 -22 71 -82 77v56c60 6 82 33 82 77c0 28 -3 55 -11 110c-10 71 -12 88 -12 109c0 82 50 106 136 106h11v-56z" />
    <glyph glyph-name="braceright" unicode="}" horiz-adv-x="303" 
d="M239 378v-56c-60 -6 -82 -33 -82 -77c0 -28 3 -55 11 -110c10 -71 12 -88 12 -109c0 -82 -50 -106 -136 -106h-11v56h12c59 0 77 18 77 49c0 23 -2 36 -11 100c-10 70 -13 92 -13 123c0 58 32 94 87 101c-54 7 -87 45 -87 103c0 31 3 53 13 123c9 64 11 77 11 100
c0 31 -18 49 -77 49h-12v56h11c86 0 136 -24 136 -106c0 -21 -2 -38 -12 -109c-8 -55 -11 -82 -11 -110c0 -44 22 -71 82 -77z" />
    <glyph glyph-name="bracketleft" unicode="[" horiz-adv-x="307" 
d="M261 780v-56h-105v-748h105v-56h-163v860h163z" />
    <glyph glyph-name="bracketright" unicode="]" horiz-adv-x="295" 
d="M197 -80h-163v56h105v748h-105v56h163v-860z" />
    <glyph glyph-name="parenleft" unicode="(" horiz-adv-x="315" 
d="M221 780h58c-74 -125 -117 -280 -117 -430s43 -305 117 -430h-58c-75 113 -121 272 -121 430s46 317 121 430z" />
    <glyph glyph-name="parenright" unicode=")" horiz-adv-x="315" 
d="M30 780h58c75 -113 121 -272 121 -430s-46 -317 -121 -430h-58c74 125 117 280 117 430s-43 305 -117 430z" />
    <glyph glyph-name="emdash" unicode="&#x2014;" horiz-adv-x="1000" 
d="M930 264h-860v56h860v-56z" />
    <glyph glyph-name="endash" unicode="&#x2013;" horiz-adv-x="500" 
d="M430 264h-360v56h360v-56z" />
    <glyph glyph-name="hyphen" unicode="-" horiz-adv-x="274" 
d="M242 255h-210v56h210v-56z" />
    <glyph glyph-name="guillemotleft" unicode="&#xab;" horiz-adv-x="557" 
d="M330 414l-137 -166l137 -166h-73l-137 166l137 166h73zM500 414l-137 -166l137 -166h-73l-137 166l137 166h73z" />
    <glyph glyph-name="guillemotright" unicode="&#xbb;" horiz-adv-x="557" 
d="M267 248l-137 -166h-73l137 166l-137 166h73zM437 248l-137 -166h-73l137 166l-137 166h73z" />
    <glyph glyph-name="guilsinglleft" unicode="&#x2039;" horiz-adv-x="387" 
d="M330 414l-137 -166l137 -166h-73l-137 166l137 166h73z" />
    <glyph glyph-name="guilsinglright" unicode="&#x203a;" horiz-adv-x="387" 
d="M267 248l-137 -166h-73l137 166l-137 166h73z" />
    <glyph glyph-name="quotedblbase" unicode="&#x201e;" horiz-adv-x="390" 
d="M140 90l-90 -210h-81l78 220h93v-10zM310 90l-90 -210h-81l78 220h93v-10z" />
    <glyph glyph-name="quotedblleft" unicode="&#x201c;" horiz-adv-x="417" 
d="M54 495l94 240h77l-78 -250h-93v10zM224 495l94 240h77l-78 -250h-93v10z" />
    <glyph glyph-name="quotedblright" unicode="&#x201d;" horiz-adv-x="417" 
d="M193 725l-94 -240h-77l78 250h93v-10zM363 725l-94 -240h-77l78 250h93v-10z" />
    <glyph glyph-name="quoteleft" unicode="&#x2018;" horiz-adv-x="247" 
d="M54 495l94 240h77l-78 -250h-93v10z" />
    <glyph glyph-name="quoteright" unicode="&#x2019;" horiz-adv-x="247" 
d="M193 725l-94 -240h-77l78 250h93v-10z" />
    <glyph glyph-name="quotesinglbase" unicode="&#x201a;" horiz-adv-x="220" 
d="M140 90l-90 -210h-81l78 220h93v-10z" />
    <glyph glyph-name="space" unicode=" " horiz-adv-x="216" 
 />
    <glyph glyph-name="cent" unicode="&#xa2;" horiz-adv-x="560" 
d="M319 476v-422c55 10 93 49 108 115h90c-23 -111 -97 -171 -198 -181v-78h-58v77c-122 10 -212 95 -212 277c0 161 96 259 212 277v79h58v-77c114 -7 188 -81 203 -191h-90c-17 75 -55 116 -113 124zM143 270c0 -135 52 -201 118 -215v419c-67 -16 -118 -82 -118 -204z
" />
    <glyph glyph-name="currency" unicode="&#xa4;" 
d="M470 301c0 -39 -12 -75 -33 -105l60 -60l-41 -41l-60 60c-30 -21 -66 -34 -106 -34s-76 12 -105 34l-60 -59l-41 41l60 59c-22 29 -34 66 -34 105c0 40 13 76 34 106l-60 60l41 41l60 -60c30 21 66 33 105 33s76 -12 105 -34l61 61l41 -41l-61 -61c22 -29 34 -66 34 -105
zM290 179c67 0 118 51 118 122s-51 122 -118 122s-118 -51 -118 -122s51 -122 118 -122z" />
    <glyph glyph-name="dollar" unicode="$" 
d="M526 181c0 -112 -88 -182 -201 -193v-78h-58v77c-127 8 -209 83 -214 199h92c9 -71 51 -119 122 -130v256c-116 32 -189 84 -189 199c0 113 79 180 189 191v78h58v-77c119 -10 182 -93 194 -194h-92c-7 68 -38 115 -102 125v-238c148 -47 201 -112 201 -215zM170 524
c0 -67 30 -98 97 -119v229c-60 -10 -97 -47 -97 -110zM325 301v-246c65 8 109 44 109 116c0 58 -27 103 -109 130z" />
    <glyph glyph-name="Euro" unicode="&#x20ac;" 
d="M465 260h-268c18 -146 86 -206 196 -206c57 0 103 12 147 40v-71c-49 -28 -98 -37 -152 -37c-163 0 -267 68 -288 274h-70l10 56h56v26c0 10 0 19 1 28h-49l10 56h43c26 191 140 278 297 278c72 0 128 -21 163 -62l-42 -57c-30 34 -75 51 -123 51
c-100 0 -180 -55 -199 -210h296l-11 -56h-290v-24c0 -10 0 -20 1 -30h281z" />
    <glyph glyph-name="sterling" unicode="&#xa3;" 
d="M518 70v-70h-450v62c82 20 109 80 109 138c0 44 -8 75 -27 117h-73v56h46c-19 43 -31 79 -31 125c0 123 95 206 214 206c134 0 202 -83 210 -196h-92c-12 87 -50 128 -120 128c-80 0 -116 -62 -116 -121c0 -54 10 -82 37 -142h216v-56h-193c14 -36 20 -69 20 -102
c0 -68 -25 -107 -76 -145h326z" />
    <glyph glyph-name="yen" unicode="&#xa5;" 
d="M373 357h122v-56h-153l-9 -16v-48h162v-56h-162v-181h-86v181h-162v56h162v48l-9 16h-153v56h122l-184 333h106l165 -331l162 331h101z" />
    <glyph glyph-name="approxequal" unicode="&#x2248;" 
d="M186 438c40 0 65 -13 117 -41c39 -21 66 -35 95 -35c31 0 51 15 71 49l44 -33c-33 -51 -67 -77 -121 -77c-39 0 -64 13 -116 41c-39 21 -66 35 -95 35c-30 0 -51 -15 -71 -49l-44 37c33 51 67 73 120 73zM186 278c40 0 65 -13 117 -41c39 -21 66 -35 95 -35
c31 0 51 15 71 49l44 -33c-33 -51 -67 -77 -121 -77c-39 0 -64 13 -116 41c-39 21 -66 35 -95 35c-30 0 -51 -15 -71 -49l-44 37c33 51 67 73 120 73z" />
    <glyph glyph-name="asciitilde" unicode="~" 
d="M446 356h56c0 -86 -36 -133 -110 -133c-39 0 -64 13 -116 41c-37 20 -66 35 -94 35c-38 0 -49 -29 -49 -76h-56c0 86 36 133 110 133c39 0 64 -13 116 -41c37 -20 66 -35 94 -35c38 0 49 29 49 76z" />
    <glyph glyph-name="divide" unicode="&#xf7;" 
d="M292 533c32 0 56 -24 56 -56s-24 -56 -56 -56s-56 24 -56 56s24 56 56 56zM500 291h-420v56h420v-56zM292 213c32 0 56 -24 56 -56s-24 -56 -56 -56s-56 24 -56 56s24 56 56 56z" />
    <glyph glyph-name="emptyset" unicode="&#x2205;" horiz-adv-x="838" 
d="M793 688l-81 -81c56 -68 90 -156 90 -252c0 -215 -168 -389 -383 -389c-98 0 -186 36 -253 95l-80 -80l-41 41l81 81c-56 68 -90 156 -90 252c0 215 168 389 383 389c98 0 186 -36 253 -95l80 80zM98 355c0 -79 26 -152 71 -209l460 460c-56 50 -129 80 -210 80
c-181 0 -321 -149 -321 -331zM419 24c181 0 321 148 321 331c0 79 -26 152 -71 209l-460 -460c56 -50 129 -80 210 -80z" />
    <glyph glyph-name="equal" unicode="=" 
d="M500 387h-420v56h420v-56zM500 187h-420v56h420v-56z" />
    <glyph glyph-name="greater" unicode="&#x3e;" 
d="M469 299v-68l-401 -201v68l342 166l-342 166v70z" />
    <glyph glyph-name="greaterequal" unicode="&#x2265;" 
d="M490 342v-68l-420 -171v68l358 138l-358 134v70zM70 56h420v-56h-420v56z" />
    <glyph glyph-name="infinity" unicode="&#x221e;" horiz-adv-x="986" 
d="M713 544c170 0 243 -129 243 -279s-73 -279 -243 -279c-96 0 -175 52 -222 161c-50 -109 -113 -161 -218 -161c-170 0 -243 129 -243 279s73 279 243 279c96 0 175 -52 222 -161c50 109 113 161 218 161zM273 52c76 0 146 59 165 213c-29 154 -89 213 -165 213
c-87 0 -149 -88 -149 -213s62 -213 149 -213zM713 52c87 0 149 88 149 213s-62 213 -149 213c-76 0 -146 -59 -165 -213c29 -154 89 -213 165 -213z" />
    <glyph glyph-name="integral" unicode="&#x222b;" 
d="M339 754c31 0 52 -4 78 -22l-15 -54c-21 16 -36 20 -60 20c-43 0 -75 -43 -75 -124c0 -57 6 -104 52 -270c40 -144 55 -215 55 -279c0 -119 -58 -185 -134 -185c-31 0 -52 4 -78 22l15 54c21 -16 36 -20 60 -20c43 0 75 43 75 124c0 57 -6 104 -52 270
c-40 144 -55 215 -55 279c0 119 58 185 134 185z" />
    <glyph glyph-name="less" unicode="&#x3c;" 
d="M504 432l-342 -166l342 -166v-70l-401 201v68l401 201v-68z" />
    <glyph glyph-name="lessequal" unicode="&#x2264;" 
d="M510 445l-358 -138l358 -134v-70l-420 171v68l420 171v-68zM90 56h420v-56h-420v56z" />
    <glyph glyph-name="logicalnot" unicode="&#xac;" 
d="M469 210h-58v118h-311v56h369v-174z" />
    <glyph glyph-name="minus" unicode="&#x2212;" 
d="M500 291h-420v56h420v-56z" />
    <glyph glyph-name="multiply" unicode="&#xd7;" 
d="M331 314l138 -138l-41 -41l-138 138l-138 -138l-41 41l138 138l-138 138l41 41l138 -138l138 138l41 -41z" />
    <glyph glyph-name="notequal" unicode="&#x2260;" 
d="M366 387l-85 -144h219v-56h-251l-51 -87h-66l51 87h-103v56h135l85 144h-220v56h252l51 87h66l-51 -87h102v-56h-134z" />
    <glyph glyph-name="partialdiff" unicode="&#x2202;" 
d="M261 758c211 0 268 -200 268 -406c0 -270 -109 -366 -256 -366c-121 0 -229 85 -229 250c0 134 78 256 244 256c64 0 117 -25 145 -69c-10 144 -51 269 -176 269c-67 0 -104 -17 -149 -55l-38 53c57 48 112 68 191 68zM281 52c108 0 153 110 156 284
c-32 63 -81 90 -146 90c-103 0 -153 -75 -153 -187c0 -127 64 -187 143 -187z" />
    <glyph glyph-name="percent" unicode="%" horiz-adv-x="740" 
d="M189 700c90 0 148 -61 148 -159c0 -97 -58 -159 -148 -159s-148 62 -148 159c0 98 58 159 148 159zM190 0h-87l448 690h87zM189 640c-38 0 -64 -34 -64 -99c0 -64 26 -99 64 -99s64 35 64 99c0 65 -26 99 -64 99zM551 304c90 0 148 -61 148 -159
c0 -97 -58 -159 -148 -159s-148 62 -148 159c0 98 58 159 148 159zM551 244c-38 0 -64 -34 -64 -99c0 -64 26 -99 64 -99s64 35 64 99c0 65 -26 99 -64 99z" />
    <glyph glyph-name="perthousand" unicode="&#x2030;" horiz-adv-x="1077" 
d="M337 541c0 -97 -58 -159 -148 -159s-148 62 -148 159c0 98 58 159 148 159s148 -61 148 -159zM638 690l-448 -690h-87l448 690h87zM125 541c0 -64 26 -99 64 -99s64 35 64 99c0 65 -26 99 -64 99s-64 -34 -64 -99zM551 304c90 0 148 -61 148 -159
c0 -97 -58 -159 -148 -159s-148 62 -148 159c0 98 58 159 148 159zM888 304c90 0 148 -61 148 -159c0 -97 -58 -159 -148 -159s-148 62 -148 159c0 98 58 159 148 159zM551 46c38 0 64 35 64 99c0 65 -26 99 -64 99s-64 -34 -64 -99c0 -64 26 -99 64 -99zM888 46
c38 0 64 35 64 99c0 65 -26 99 -64 99s-64 -34 -64 -99c0 -64 26 -99 64 -99z" />
    <glyph glyph-name="plus" unicode="+" 
d="M500 287h-181v-202h-58v202h-181v56h181v206h58v-206h181v-56z" />
    <glyph glyph-name="plusminus" unicode="&#xb1;" 
d="M319 347h181v-56h-181v-180h-58v180h-181v56h181v176h58v-176zM500 0h-420v56h420v-56z" />
    <glyph glyph-name="product" unicode="&#x220f;" 
d="M549 620h-61v-730h-86v730h-224v-730h-86v730h-61v70h518v-70z" />
    <glyph glyph-name="radical" unicode="&#x221a;" 
d="M549 780l-214 -940h-73l-126 414h-67v56h113l116 -392l189 862h62z" />
    <glyph glyph-name="summation" unicode="&#x2211;" 
d="M536 -40v-70h-489v68l275 343l-245 321v68h453v-70h-353l245 -320l-277 -340h391z" />
    <glyph glyph-name="lozenge" unicode="&#x25ca;" horiz-adv-x="512" 
d="M456 345l-167 -345h-66l-167 345l167 345h66zM390 345l-134 286l-134 -286l134 -286z" />
    <glyph glyph-name="ampersand" unicode="&#x26;" horiz-adv-x="654" 
d="M622 385v-70h-96v-308c-57 -13 -122 -21 -189 -21c-161 0 -273 41 -273 187c0 83 60 158 158 179c-76 18 -130 73 -130 154c0 118 101 198 244 198c49 0 82 -3 120 -10v-69c-41 8 -74 11 -123 11c-91 0 -145 -48 -145 -125c0 -94 56 -121 130 -125c18 -1 40 -1 62 -1h60
v112h86v-112h96zM160 186c0 -96 54 -132 179 -132c40 0 67 2 101 9v252h-60c-22 0 -41 0 -61 -2c-115 -10 -159 -63 -159 -127z" />
    <glyph glyph-name="asciicircum" unicode="^" 
d="M432 215l-141 345l-141 -345h-70l176 401h68l176 -401h-68z" />
    <glyph glyph-name="at" unicode="@" horiz-adv-x="852" 
d="M634 465l-63 -264c-3 -13 -4 -24 -4 -32c0 -18 5 -36 38 -36c60 0 123 62 123 196c0 184 -120 277 -262 277c-168 0 -350 -131 -350 -362c0 -194 128 -290 283 -290c81 0 178 26 251 80l24 -49c-97 -66 -198 -89 -278 -89c-177 0 -342 113 -342 347
c0 264 210 421 415 421c189 0 321 -134 321 -333c0 -181 -109 -256 -205 -256c-52 0 -92 21 -100 72l-21 -41c-32 -27 -64 -39 -100 -39c-64 0 -141 39 -141 161c0 131 89 255 216 255c36 0 69 -10 88 -31l9 -48l17 61h81zM498 251l9 39c22 96 -14 127 -62 127
c-81 0 -128 -91 -128 -183c0 -74 30 -101 68 -101c55 0 99 58 113 118z" />
    <glyph glyph-name="bar" unicode="|" horiz-adv-x="250" 
d="M154 -200h-58v1000h58v-1000z" />
    <glyph glyph-name="brokenbar" unicode="&#xa6;" horiz-adv-x="250" 
d="M154 350h-58v340h58v-340zM154 -160h-58v340h58v-340z" />
    <glyph glyph-name="copyright" unicode="&#xa9;" horiz-adv-x="838" 
d="M419 744c215 0 383 -169 383 -389s-168 -389 -383 -389s-383 169 -383 389s168 389 383 389zM419 686c-181 0 -321 -144 -321 -331c0 -188 140 -331 321 -331s321 143 321 331c0 187 -140 331 -321 331zM425 586c109 0 179 -66 198 -161h-92c-10 52 -40 93 -106 93
c-78 0 -120 -64 -120 -162c0 -100 47 -164 120 -164c58 0 97 42 105 93h92c-23 -94 -86 -161 -206 -161c-122 0 -207 91 -207 229c0 144 87 233 216 233z" />
    <glyph glyph-name="dagger" unicode="&#x2020;" horiz-adv-x="550" 
d="M494 374l-180 8l12 -542h-102l12 542l-180 -8v78l180 -8l-12 246h102l-12 -246l180 8v-78z" />
    <glyph glyph-name="daggerdbl" unicode="&#x2021;" horiz-adv-x="550" 
d="M314 382v-234l180 8v-78l-180 8l12 -246h-102l12 246l-180 -8v78l180 -8v234l-180 -8v78l180 -8l-12 246h102l-12 -246l180 8v-78z" />
    <glyph glyph-name="degree" unicode="&#xb0;" horiz-adv-x="298" 
d="M149 704c71 0 121 -48 121 -119s-50 -119 -121 -119s-121 48 -121 119s50 119 121 119zM149 648c-34 0 -59 -26 -59 -63s25 -63 59 -63s59 26 59 63s-25 63 -59 63z" />
    <glyph glyph-name="paragraph" unicode="&#xb6;" horiz-adv-x="566" 
d="M488 690v-800h-58v744h-92v-744h-58v430h-23c-18 0 -39 0 -56 1c-102 6 -157 89 -157 184s55 178 157 184c17 1 38 1 56 1h231z" />
    <glyph glyph-name="registered" unicode="&#xae;" horiz-adv-x="508" 
d="M254 764c123 0 210 -87 210 -210s-87 -210 -210 -210s-210 87 -210 210s87 210 210 210zM254 390c95 0 162 68 162 164s-67 164 -162 164s-162 -68 -162 -164s67 -164 162 -164zM300 553c22 -4 30 -22 32 -44c3 -27 8 -43 13 -54h-57c-3 12 -5 26 -7 45
c-2 18 -14 23 -29 23h-23v-68h-50v204h70c10 0 18 0 27 -1c39 -4 67 -20 67 -55c0 -26 -19 -42 -43 -50zM268 566c14 3 20 11 20 26c0 16 -8 22 -20 25c-6 1 -10 1 -19 1h-20v-53h20c9 0 13 0 19 1z" />
    <glyph glyph-name="section" unicode="&#xa7;" horiz-adv-x="560" 
d="M531 246c0 -65 -41 -118 -99 -145c26 -29 41 -66 41 -114c0 -108 -95 -161 -198 -161c-113 0 -196 54 -210 174h90c19 -77 65 -108 126 -108c57 0 100 30 100 88c0 57 -32 97 -150 126c-113 28 -198 89 -198 188c0 76 42 127 104 150c-25 27 -40 60 -40 102
c0 100 77 158 180 158c118 0 184 -65 195 -166h-90c-12 62 -49 100 -105 100c-50 0 -88 -30 -88 -83c0 -56 42 -93 135 -119c143 -40 207 -94 207 -190zM364 149c47 10 75 48 75 87c0 61 -45 92 -148 124c-29 9 -58 20 -85 34c-46 -4 -81 -33 -81 -96c0 -54 55 -96 139 -116
c38 -9 71 -20 100 -33z" />
    <glyph glyph-name="trademark" unicode="&#x2122;" horiz-adv-x="539" 
d="M218 660v-41h-74v-163h-50v163h-74v41h198zM476 659v-203h-50l2 142l-43 -138h-52l-42 137l1 -141h-50v203h75l43 -155l43 155h73z" />
    <glyph glyph-name="acute" unicode="&#xb4;" horiz-adv-x="300" 
d="M172 580h-56l61 110h80z" />
    <glyph glyph-name="breve" unicode="&#x2d8;" horiz-adv-x="300" 
d="M199 690h53c0 -83 -31 -124 -102 -124c-72 0 -102 41 -102 124h53c1 -52 20 -69 49 -69s48 17 49 69z" />
    <glyph glyph-name="caron" unicode="&#x2c7;" horiz-adv-x="300" 
d="M247 690l-67 -110h-59l-67 110h64l33 -63l33 63h63z" />
    <glyph glyph-name="cedilla" unicode="&#xb8;" horiz-adv-x="300" 
d="M185 9l-27 -49c53 -7 81 -36 81 -83c0 -56 -50 -87 -123 -87c-18 0 -36 3 -50 9v44c15 -8 32 -11 53 -11c41 0 62 17 62 44c0 34 -27 51 -96 46l47 87h53z" />
    <glyph glyph-name="circumflex" unicode="&#x2c6;" horiz-adv-x="300" 
d="M183 580l-33 63l-33 -63h-63l67 110h59l67 -110h-64z" />
    <glyph glyph-name="dieresis" unicode="&#xa8;" horiz-adv-x="300" 
d="M77 675c25 0 46 -21 46 -46s-21 -46 -46 -46s-46 21 -46 46s21 46 46 46zM223 675c25 0 46 -21 46 -46s-21 -46 -46 -46s-46 21 -46 46s21 46 46 46z" />
    <glyph glyph-name="dotaccent" unicode="&#x2d9;" horiz-adv-x="300" 
d="M150 704c31 0 55 -24 55 -55s-24 -55 -55 -55s-55 24 -55 55s24 55 55 55z" />
    <glyph glyph-name="grave" unicode="`" horiz-adv-x="300" 
d="M182 580h-56l-85 110h80z" />
    <glyph glyph-name="hungarumlaut" unicode="&#x2dd;" horiz-adv-x="300" 
d="M116 580h-56l61 110h80zM238 580h-56l61 110h80z" />
    <glyph glyph-name="macron" unicode="&#xaf;" horiz-adv-x="300" 
d="M270 604h-240v52h240v-52z" />
    <glyph glyph-name="ogonek" unicode="&#x2db;" horiz-adv-x="300" 
d="M150 11l63 -11c-51 -9 -94 -56 -94 -119c0 -37 15 -50 44 -50c20 0 38 6 56 20v-49c-25 -17 -56 -25 -89 -25c-55 0 -93 22 -93 85c0 76 54 127 113 149z" />
    <glyph glyph-name="ring" unicode="&#x2da;" horiz-adv-x="300" 
d="M150 733c53 0 91 -35 91 -84s-38 -84 -91 -84s-91 35 -91 84s38 84 91 84zM150 697c-24 0 -41 -18 -41 -48s17 -48 41 -48s41 18 41 48s-17 48 -41 48z" />
    <glyph glyph-name="tilde" unicode="&#x2dc;" horiz-adv-x="300" 
d="M96 671c19 0 35 -4 62 -13c24 -8 35 -11 44 -11c10 0 16 5 16 20h38c0 -56 -20 -71 -52 -71c-19 0 -35 4 -62 13c-24 8 -35 11 -44 11c-10 0 -16 -5 -16 -20h-38c0 56 20 71 52 71z" />
    <glyph glyph-name="uni0326" unicode="&#x326;" horiz-adv-x="0" 
d="M194 -63l-60 -132h-61l52 144h69v-12z" />
    </font>
</defs>
</svg>
