<?xml version="1.0" standalone="no"?>
<!DOCTYPE svg PUBLIC "-//W3C//DTD SVG 1.1//EN" "http://www.w3.org/Graphics/SVG/1.1/DTD/svg11.dtd" >
<svg xmlns="http://www.w3.org/2000/svg" xmlns:xlink="http://www.w3.org/1999/xlink" version="1.1">
<metadata>
Created by FontForge 20160407 at Thu Oct 20 10:34:37 2016
 By Jimmy Warting
No Rights Reserved.
</metadata>
<defs>
<font id="Aileron-Light" horiz-adv-x="561" >
  <font-face 
    font-family="Aileron Light"
    font-weight="300"
    font-stretch="normal"
    units-per-em="1000"
    panose-1="0 0 4 0 0 0 0 0 0 0"
    ascent="770"
    descent="-230"
    x-height="523"
    cap-height="690"
    bbox="-169 -223 1069 895"
    underline-thickness="50"
    underline-position="-100"
    stemh="49"
    stemv="62"
    unicode-range="U+0020-FB02"
  />
<missing-glyph horiz-adv-x="500" 
d="M0 0v700h500v-700h-500zM250 395l170 255h-340zM280 350l170 -255v510zM80 50h340l-170 255zM50 605v-510l170 255z" />
    <glyph glyph-name="fi" unicode="fi" horiz-adv-x="475" 
d="M399 525v-525h-62v475h-195v-475h-62v475h-57v50h57v25c0 18 0 41 2 60c10 89 75 144 200 144c21 0 37 -2 55 -5v-52c-133 13 -185 -25 -193 -90c-2 -17 -2 -37 -2 -52v-30h257z" />
    <glyph glyph-name="fl" unicode="fl" horiz-adv-x="460" 
d="M373 83c2 -34 17 -43 62 -38v-46c-16 -3 -33 -3 -49 -3c-42 0 -72 14 -75 71c-1 18 -1 39 -1 71v559c-18 6 -39 8 -64 8c-74 0 -106 -45 -112 -98c-2 -17 -2 -37 -2 -52v-30h108v-50h-108v-475h-62v475h-47v50h47v25c0 18 0 41 2 60c10 89 68 144 176 144
c51 0 92 -6 124 -19v-595c0 -23 0 -41 1 -57z" />
    <glyph glyph-name=".notdef" horiz-adv-x="500" 
d="M0 0v700h500v-700h-500zM250 395l170 255h-340zM280 350l170 -255v510zM80 50h340l-170 255zM50 605v-510l170 255z" />
    <glyph glyph-name="A" unicode="A" horiz-adv-x="630" 
d="M462 253h-275l-89 -253h-66l255 690h83l249 -690h-67zM205 305h239l-117 335z" />
    <glyph glyph-name="Aacute" unicode="&#xc1;" horiz-adv-x="630" 
d="M345 736h-42l54 94h60zM462 253h-275l-89 -253h-66l255 690h83l249 -690h-67zM205 305h239l-117 335z" />
    <glyph glyph-name="Abreve" unicode="&#x102;" horiz-adv-x="630" 
d="M328 722c-67 0 -100 40 -100 108h40c1 -43 25 -66 60 -66s59 23 60 66h40c0 -68 -34 -108 -100 -108zM462 253h-275l-89 -253h-66l255 690h83l249 -690h-67zM205 305h239l-117 335z" />
    <glyph glyph-name="Acircumflex" unicode="&#xc2;" horiz-adv-x="630" 
d="M289 736h-49l66 94h45l67 -94h-51l-39 66zM462 253h-275l-89 -253h-66l255 690h83l249 -690h-67zM205 305h239l-117 335z" />
    <glyph glyph-name="Adieresis" unicode="&#xc4;" horiz-adv-x="630" 
d="M271 747c-20 0 -36 16 -36 36s16 36 36 36s36 -16 36 -36s-16 -36 -36 -36zM385 747c-20 0 -36 16 -36 36s16 36 36 36s36 -16 36 -36s-16 -36 -36 -36zM462 253h-275l-89 -253h-66l255 690h83l249 -690h-67zM205 305h239l-117 335z" />
    <glyph glyph-name="Agrave" unicode="&#xc0;" horiz-adv-x="630" 
d="M309 736l-72 94h61l53 -94h-42zM462 253h-275l-89 -253h-66l255 690h83l249 -690h-67zM205 305h239l-117 335z" />
    <glyph glyph-name="Amacron" unicode="&#x100;" horiz-adv-x="630" 
d="M429 763h-202v40h202v-40zM462 253h-275l-89 -253h-66l255 690h83l249 -690h-67zM205 305h239l-117 335z" />
    <glyph glyph-name="Aogonek" unicode="&#x104;" horiz-adv-x="630" 
d="M619 0h-22c-58 -17 -104 -67 -104 -131c0 -37 16 -51 45 -51c21 0 39 7 59 24v-39c-23 -18 -50 -26 -82 -26c-46 0 -82 19 -82 79c0 73 52 128 115 154l-86 243h-275l-89 -253h-66l255 690h83zM205 305h239l-117 335z" />
    <glyph glyph-name="Aring" unicode="&#xc5;" horiz-adv-x="630" 
d="M328 718c-46 0 -80 30 -80 73s34 72 80 72s81 -29 81 -72s-35 -73 -81 -73zM328 832c-24 0 -40 -18 -40 -41c0 -24 16 -42 40 -42s40 18 40 42c0 23 -16 41 -40 41zM462 253h-275l-89 -253h-66l255 690h83l249 -690h-67zM205 305h239l-117 335z" />
    <glyph glyph-name="Atilde" unicode="&#xc3;" horiz-adv-x="630" 
d="M276 776c-10 0 -16 -5 -16 -20h-31c0 44 17 59 46 59c18 0 33 -4 60 -13c24 -8 36 -11 45 -11c10 0 16 5 16 20h31c0 -44 -17 -59 -46 -59c-18 0 -33 4 -60 13c-24 8 -36 11 -45 11zM462 253h-275l-89 -253h-66l255 690h83l249 -690h-67zM205 305h239l-117 335z" />
    <glyph glyph-name="AE" unicode="&#xc6;" horiz-adv-x="904" 
d="M874 51v-51h-422l-13 253h-248l-149 -253h-68l412 690h478v-51h-383l14 -268h343v-52h-341l14 -268h363zM436 305l-18 335l-197 -335h215z" />
    <glyph glyph-name="B" unicode="B" horiz-adv-x="612" 
d="M425 366c97 -21 148 -76 148 -170c0 -120 -88 -181 -183 -192c-31 -4 -52 -4 -81 -4h-210v690h192c30 0 51 0 85 -3c107 -12 172 -69 172 -166c0 -84 -48 -134 -123 -155zM161 638v-253h145c17 0 34 1 55 3c71 8 120 47 120 126c0 84 -58 117 -127 123c-20 1 -39 1 -59 1
h-134zM370 53c73 6 137 49 137 137c0 82 -44 133 -136 141c-23 2 -38 3 -54 3h-156v-282h162c16 0 34 0 47 1z" />
    <glyph glyph-name="C" unicode="C" horiz-adv-x="691" 
d="M370 704c166 0 255 -98 273 -229l1 -10h-62l-2 10c-21 105 -90 179 -213 179c-142 0 -249 -121 -249 -309c0 -192 102 -309 242 -309c128 0 196 77 217 183l2 10h62l-1 -10c-18 -127 -108 -233 -284 -233c-189 0 -307 146 -307 356c0 212 132 362 321 362z" />
    <glyph glyph-name="Cacute" unicode="&#x106;" horiz-adv-x="691" 
d="M375 736h-42l54 94h60zM370 704c166 0 255 -98 273 -229l1 -10h-62l-2 10c-21 105 -90 179 -213 179c-142 0 -249 -121 -249 -309c0 -192 102 -309 242 -309c128 0 196 77 217 183l2 10h62l-1 -10c-18 -127 -108 -233 -284 -233c-189 0 -307 146 -307 356
c0 212 132 362 321 362z" />
    <glyph glyph-name="Ccaron" unicode="&#x10c;" horiz-adv-x="691" 
d="M336 736l-66 94h50l39 -66l39 66h50l-67 -94h-45zM579 229h62l-1 -10c-18 -127 -108 -233 -284 -233c-189 0 -307 146 -307 356c0 212 132 362 321 362c166 0 255 -98 273 -229l1 -10h-62l-2 10c-21 105 -90 179 -213 179c-142 0 -249 -121 -249 -309
c0 -192 102 -309 242 -309c128 0 196 77 217 183z" />
    <glyph glyph-name="Ccedilla" unicode="&#xc7;" horiz-adv-x="691" 
d="M579 229h62l-1 -10c-18 -124 -104 -229 -273 -233l-17 -30c53 -6 84 -33 84 -81c0 -57 -51 -85 -115 -85c-20 0 -37 3 -51 9v36c15 -8 31 -11 53 -11c42 0 68 18 68 50c0 36 -28 56 -97 51l33 62c-171 15 -276 157 -276 355c0 212 132 362 321 362
c166 0 255 -98 273 -229l1 -10h-62l-2 10c-21 105 -90 179 -213 179c-142 0 -249 -121 -249 -309c0 -192 102 -309 242 -309c128 0 196 77 217 183z" />
    <glyph glyph-name="Cdotaccent" unicode="&#x10a;" horiz-adv-x="691" 
d="M358 819c20 0 36 -16 36 -36s-16 -36 -36 -36s-36 16 -36 36s16 36 36 36zM370 704c166 0 255 -98 273 -229l1 -10h-62l-2 10c-21 105 -90 179 -213 179c-142 0 -249 -121 -249 -309c0 -192 102 -309 242 -309c128 0 196 77 217 183l2 10h62l-1 -10
c-18 -127 -108 -233 -284 -233c-189 0 -307 146 -307 356c0 212 132 362 321 362z" />
    <glyph glyph-name="D" unicode="D" horiz-adv-x="698" 
d="M387 687c140 -16 273 -116 273 -336c0 -218 -136 -330 -271 -347c-35 -4 -53 -4 -88 -4h-202v690h205c36 0 52 0 83 -3zM383 56c114 17 209 116 209 295c0 177 -97 268 -211 284c-22 3 -44 3 -80 3h-140v-586h137c34 0 58 0 85 4z" />
    <glyph glyph-name="Eth" unicode="&#xd0;" horiz-adv-x="695" 
d="M384 687c140 -16 273 -116 273 -336c0 -218 -136 -330 -270 -347c-35 -4 -53 -4 -88 -4h-203v312h-60v43h60v335h206c35 0 51 0 82 -3zM380 56c114 17 209 116 209 295c0 177 -97 268 -211 284c-22 3 -43 3 -79 3h-141v-283h154v-43h-154v-260h137c35 0 59 0 85 4z" />
    <glyph glyph-name="Dcaron" unicode="&#x10e;" horiz-adv-x="698" 
d="M338 736l-66 94h50l39 -66l39 66h50l-67 -94h-45zM387 687c140 -16 273 -116 273 -336c0 -218 -136 -330 -271 -347c-35 -4 -53 -4 -88 -4h-202v690h205c36 0 52 0 83 -3zM383 56c114 17 209 116 209 295c0 177 -97 268 -211 284c-22 3 -44 3 -80 3h-140v-586h137
c34 0 58 0 85 4z" />
    <glyph glyph-name="Dcroat" unicode="&#x110;" horiz-adv-x="695" 
d="M384 687c140 -16 273 -116 273 -336c0 -218 -136 -330 -270 -347c-35 -4 -53 -4 -88 -4h-203v312h-60v43h60v335h206c35 0 51 0 82 -3zM380 56c114 17 209 116 209 295c0 177 -97 268 -211 284c-22 3 -43 3 -79 3h-141v-283h154v-43h-154v-260h137c35 0 59 0 85 4z" />
    <glyph glyph-name="E" unicode="E" horiz-adv-x="576" 
d="M546 51v-51h-447v690h437v-51h-375v-268h349v-52h-349v-268h385z" />
    <glyph glyph-name="Eacute" unicode="&#xc9;" horiz-adv-x="576" 
d="M336 736h-42l54 94h60zM546 51v-51h-447v690h437v-51h-375v-268h349v-52h-349v-268h385z" />
    <glyph glyph-name="Ecaron" unicode="&#x11a;" horiz-adv-x="576" 
d="M297 736l-66 94h50l39 -66l39 66h50l-67 -94h-45zM546 51v-51h-447v690h437v-51h-375v-268h349v-52h-349v-268h385z" />
    <glyph glyph-name="Ecircumflex" unicode="&#xca;" horiz-adv-x="576" 
d="M280 736h-49l66 94h45l67 -94h-51l-39 66zM546 51v-51h-447v690h437v-51h-375v-268h349v-52h-349v-268h385z" />
    <glyph glyph-name="Edieresis" unicode="&#xcb;" horiz-adv-x="576" 
d="M262 747c-20 0 -36 16 -36 36s16 36 36 36s36 -16 36 -36s-16 -36 -36 -36zM376 747c-20 0 -36 16 -36 36s16 36 36 36s36 -16 36 -36s-16 -36 -36 -36zM546 51v-51h-447v690h437v-51h-375v-268h349v-52h-349v-268h385z" />
    <glyph glyph-name="Edotaccent" unicode="&#x116;" horiz-adv-x="576" 
d="M319 747c-20 0 -36 16 -36 36s16 36 36 36s36 -16 36 -36s-16 -36 -36 -36zM546 51v-51h-447v690h437v-51h-375v-268h349v-52h-349v-268h385z" />
    <glyph glyph-name="Egrave" unicode="&#xc8;" horiz-adv-x="576" 
d="M300 736l-72 94h61l53 -94h-42zM546 51v-51h-447v690h437v-51h-375v-268h349v-52h-349v-268h385z" />
    <glyph glyph-name="Emacron" unicode="&#x112;" horiz-adv-x="576" 
d="M420 763h-202v40h202v-40zM546 51v-51h-447v690h437v-51h-375v-268h349v-52h-349v-268h385z" />
    <glyph glyph-name="Eogonek" unicode="&#x118;" horiz-adv-x="576" 
d="M443 -131c0 -37 16 -51 45 -51c21 0 39 7 59 24v-39c-23 -18 -50 -26 -82 -26c-46 0 -82 19 -82 79c0 65 40 115 94 144h-378v690h437v-51h-375v-268h349v-52h-349v-268h385v-51h1c-58 -17 -104 -67 -104 -131z" />
    <glyph glyph-name="F" unicode="F" horiz-adv-x="554" 
d="M161 639v-268h339v-52h-339v-319h-62v690h437v-51h-375z" />
    <glyph glyph-name="G" unicode="G" horiz-adv-x="704" 
d="M392 323h250v-323h-56v142l-27 -62c-46 -64 -119 -94 -202 -94c-190 0 -308 146 -308 356c0 212 133 362 324 362c166 0 255 -98 274 -229l1 -10h-62l-2 10c-21 105 -90 179 -213 179c-145 0 -253 -121 -253 -309c0 -192 102 -309 243 -309c110 0 219 80 219 236h-188v51
z" />
    <glyph glyph-name="Gbreve" unicode="&#x11e;" horiz-adv-x="704" 
d="M362 722c-67 0 -100 40 -100 108h40c1 -43 25 -66 60 -66s59 23 60 66h40c0 -68 -34 -108 -100 -108zM392 323h250v-323h-56v142l-27 -62c-46 -64 -119 -94 -202 -94c-190 0 -308 146 -308 356c0 212 133 362 324 362c166 0 255 -98 274 -229l1 -10h-62l-2 10
c-21 105 -90 179 -213 179c-145 0 -253 -121 -253 -309c0 -192 102 -309 243 -309c110 0 219 80 219 236h-188v51z" />
    <glyph glyph-name="Gcommaaccent" unicode="&#x122;" horiz-adv-x="704" 
d="M392 323h250v-323h-56v142l-27 -62c-46 -64 -119 -94 -202 -94c-190 0 -308 146 -308 356c0 212 133 362 324 362c166 0 255 -98 274 -229l1 -10h-62l-2 10c-21 105 -90 179 -213 179c-145 0 -253 -121 -253 -309c0 -192 102 -309 243 -309c110 0 219 80 219 236h-188v51
zM341 -51h52v-9l-55 -127h-46z" />
    <glyph glyph-name="Gdotaccent" unicode="&#x120;" horiz-adv-x="704" 
d="M362 747c-20 0 -36 16 -36 36s16 36 36 36s36 -16 36 -36s-16 -36 -36 -36zM392 323h250v-323h-56v142l-27 -62c-46 -64 -119 -94 -202 -94c-190 0 -308 146 -308 356c0 212 133 362 324 362c166 0 255 -98 274 -229l1 -10h-62l-2 10c-21 105 -90 179 -213 179
c-145 0 -253 -121 -253 -309c0 -192 102 -309 243 -309c110 0 219 80 219 236h-188v51z" />
    <glyph glyph-name="H" unicode="H" horiz-adv-x="702" 
d="M627 690v-690h-62v312h-404v-312h-62v690h62v-325h404v325h62z" />
    <glyph glyph-name="Hbar" unicode="&#x126;" horiz-adv-x="702" 
d="M667 509h-40v-509h-62v312h-404v-312h-62v509h-40v43h40v138h62v-138h404v138h62v-138h40v-43zM565 509h-404v-144h404v144z" />
    <glyph glyph-name="I" unicode="I" horiz-adv-x="236" 
d="M161 0h-62v690h62v-690z" />
    <glyph glyph-name="IJ" unicode="&#x132;" horiz-adv-x="762" 
d="M161 0h-62v690h62v-690zM702 690v-427c0 -28 0 -53 -2 -86c-7 -107 -71 -191 -210 -191c-123 0 -197 75 -201 208l-1 37h62l2 -37c5 -111 60 -158 146 -158c87 0 133 55 141 145c1 21 1 46 1 80v429h62z" />
    <glyph glyph-name="Iacute" unicode="&#xcd;" horiz-adv-x="236" 
d="M146 736h-42l54 94h60zM161 0h-62v690h62v-690z" />
    <glyph glyph-name="Icircumflex" unicode="&#xce;" horiz-adv-x="236" 
d="M219 736h-51l-39 66l-39 -66h-49l66 94h45zM99 690h62v-690h-62v690z" />
    <glyph glyph-name="Idieresis" unicode="&#xcf;" horiz-adv-x="236" 
d="M72 819c20 0 36 -16 36 -36s-16 -36 -36 -36s-36 16 -36 36s16 36 36 36zM186 819c20 0 36 -16 36 -36s-16 -36 -36 -36s-36 16 -36 36s16 36 36 36zM161 0h-62v690h62v-690z" />
    <glyph glyph-name="Idotaccent" unicode="&#x130;" horiz-adv-x="236" 
d="M129 819c20 0 36 -16 36 -36s-16 -36 -36 -36s-36 16 -36 36s16 36 36 36zM161 0h-62v690h62v-690z" />
    <glyph glyph-name="Igrave" unicode="&#xcc;" horiz-adv-x="236" 
d="M152 736h-42l-72 94h61zM161 0h-62v690h62v-690z" />
    <glyph glyph-name="Imacron" unicode="&#x12a;" horiz-adv-x="236" 
d="M230 763h-202v40h202v-40zM161 0h-62v690h62v-690z" />
    <glyph glyph-name="Iogonek" unicode="&#x12e;" horiz-adv-x="236" 
d="M161 690v-690h-15c-58 -17 -104 -67 -104 -131c0 -37 16 -51 45 -51c21 0 39 7 59 24v-39c-23 -18 -50 -26 -82 -26c-46 0 -82 19 -82 79c0 74 52 129 117 155v679h62z" />
    <glyph glyph-name="J" unicode="J" horiz-adv-x="526" 
d="M466 690v-427c0 -28 0 -53 -2 -86c-7 -107 -71 -191 -210 -191c-123 0 -197 75 -201 208l-1 37h62l2 -37c5 -111 60 -158 146 -158c87 0 133 55 141 145c1 21 1 46 1 80v429h62z" />
    <glyph glyph-name="K" unicode="K" horiz-adv-x="588" 
d="M266 354l316 -354h-88l-275 313l-58 -61v-252h-62v690h62v-366l360 366h74z" />
    <glyph glyph-name="Kcommaaccent" unicode="&#x136;" horiz-adv-x="588" 
d="M266 354l316 -354h-88l-275 313l-58 -61v-252h-62v690h62v-366l360 366h74zM300 -51h52v-9l-55 -127h-46z" />
    <glyph glyph-name="L" unicode="L" horiz-adv-x="562" 
d="M546 51v-51h-447v690h62v-639h385z" />
    <glyph glyph-name="Lacute" unicode="&#x139;" horiz-adv-x="562" 
d="M146 736h-42l54 94h60zM546 51v-51h-447v690h62v-639h385z" />
    <glyph glyph-name="Lcaron" unicode="&#x13d;" horiz-adv-x="562" 
d="M546 51v-51h-447v690h62v-639h385z" />
    <glyph glyph-name="Lcommaaccent" unicode="&#x13b;" horiz-adv-x="562" 
d="M546 51v-51h-447v690h62v-639h385zM295 -51h52v-9l-55 -127h-46z" />
    <glyph glyph-name="Ldot" unicode="&#x13f;" horiz-adv-x="562" 
d="M546 51v-51h-447v690h62v-639h385zM369 358c-24 0 -42 19 -42 42c0 24 18 42 42 42c23 0 42 -18 42 -42c0 -23 -19 -42 -42 -42z" />
    <glyph glyph-name="Lslash" unicode="&#x141;" horiz-adv-x="587" 
d="M572 51v-51h-448v297l-110 -65v51l110 65v342h62v-305l148 88v-51l-148 -88v-283h386z" />
    <glyph glyph-name="M" unicode="M" horiz-adv-x="839" 
d="M764 690v-690h-62v372c0 87 0 183 2 263c-27 -80 -62 -177 -94 -262l-140 -373h-78l-141 374c-31 84 -66 181 -92 260c2 -80 2 -176 2 -262v-372h-62v690h101l233 -638l232 638h99z" />
    <glyph glyph-name="N" unicode="N" horiz-adv-x="688" 
d="M612 0h-95l-359 630c2 -85 3 -188 3 -274v-356h-62v690h94l360 -630c-2 86 -3 188 -3 274v356h61z" />
    <glyph glyph-name="Nacute" unicode="&#x143;" horiz-adv-x="688" 
d="M372 736h-42l54 94h60zM612 0h-95l-359 630c2 -85 3 -188 3 -274v-356h-62v690h94l360 -630c-2 86 -3 188 -3 274v356h61z" />
    <glyph glyph-name="Ncaron" unicode="&#x147;" horiz-adv-x="688" 
d="M333 736l-66 94h50l39 -66l39 66h50l-67 -94h-45zM517 0l-359 630c2 -85 3 -188 3 -274v-356h-62v690h94l360 -630c-2 86 -3 188 -3 274v356h61l1 -690h-95z" />
    <glyph glyph-name="Ncommaaccent" unicode="&#x145;" horiz-adv-x="688" 
d="M612 0h-95l-359 630c2 -85 3 -188 3 -274v-356h-62v690h94l360 -630c-2 86 -3 188 -3 274v356h61zM387 -60l-55 -127h-46l49 136h52v-9z" />
    <glyph glyph-name="Eng" unicode="&#x14a;" horiz-adv-x="688" 
d="M612 690v-757c0 -18 0 -27 -1 -41c-8 -85 -61 -114 -149 -115v52c62 0 88 25 88 88v56l-392 652c2 -85 3 -183 3 -269v-356h-62v690h94l360 -605c-2 86 -3 176 -3 261v344h62z" />
    <glyph glyph-name="Ntilde" unicode="&#xd1;" horiz-adv-x="688" 
d="M302 815c18 0 33 -4 60 -13c24 -8 36 -11 45 -11c10 0 16 5 16 20h31c0 -44 -17 -59 -46 -59c-18 0 -33 4 -60 13c-24 8 -36 11 -45 11c-10 0 -16 -5 -16 -20h-31c0 44 17 59 46 59zM612 0h-95l-359 630c2 -85 3 -188 3 -274v-356h-62v690h94l360 -630
c-2 86 -3 188 -3 274v356h61z" />
    <glyph glyph-name="O" unicode="O" horiz-adv-x="728" 
d="M369 704c202 0 321 -149 321 -359c0 -208 -119 -359 -321 -359c-201 0 -320 151 -320 359c0 210 119 359 320 359zM369 36c149 0 252 116 252 309c0 194 -103 309 -252 309c-148 0 -251 -115 -251 -309c0 -193 103 -309 251 -309z" />
    <glyph glyph-name="Oacute" unicode="&#xd3;" horiz-adv-x="728" 
d="M386 736h-42l54 94h60zM369 704c202 0 321 -149 321 -359c0 -208 -119 -359 -321 -359c-201 0 -320 151 -320 359c0 210 119 359 320 359zM369 36c149 0 252 116 252 309c0 194 -103 309 -252 309c-148 0 -251 -115 -251 -309c0 -193 103 -309 251 -309z" />
    <glyph glyph-name="Ocircumflex" unicode="&#xd4;" horiz-adv-x="728" 
d="M330 736h-49l66 94h45l67 -94h-51l-39 66zM369 704c202 0 321 -149 321 -359c0 -208 -119 -359 -321 -359c-201 0 -320 151 -320 359c0 210 119 359 320 359zM369 36c149 0 252 116 252 309c0 194 -103 309 -252 309c-148 0 -251 -115 -251 -309
c0 -193 103 -309 251 -309z" />
    <glyph glyph-name="Odieresis" unicode="&#xd6;" horiz-adv-x="728" 
d="M312 747c-20 0 -36 16 -36 36s16 36 36 36s36 -16 36 -36s-16 -36 -36 -36zM426 747c-20 0 -36 16 -36 36s16 36 36 36s36 -16 36 -36s-16 -36 -36 -36zM369 704c202 0 321 -149 321 -359c0 -208 -119 -359 -321 -359c-201 0 -320 151 -320 359c0 210 119 359 320 359z
M369 36c149 0 252 116 252 309c0 194 -103 309 -252 309c-148 0 -251 -115 -251 -309c0 -193 103 -309 251 -309z" />
    <glyph glyph-name="Ograve" unicode="&#xd2;" horiz-adv-x="728" 
d="M350 736l-72 94h61l53 -94h-42zM369 704c202 0 321 -149 321 -359c0 -208 -119 -359 -321 -359c-201 0 -320 151 -320 359c0 210 119 359 320 359zM369 36c149 0 252 116 252 309c0 194 -103 309 -252 309c-148 0 -251 -115 -251 -309c0 -193 103 -309 251 -309z" />
    <glyph glyph-name="Ohungarumlaut" unicode="&#x150;" horiz-adv-x="728" 
d="M326 736h-42l53 94h61zM385 736l53 94h61l-72 -94h-42zM369 704c202 0 321 -149 321 -359c0 -208 -119 -359 -321 -359c-201 0 -320 151 -320 359c0 210 119 359 320 359zM369 36c149 0 252 116 252 309c0 194 -103 309 -252 309c-148 0 -251 -115 -251 -309
c0 -193 103 -309 251 -309z" />
    <glyph glyph-name="Omacron" unicode="&#x14c;" horiz-adv-x="728" 
d="M470 763h-202v40h202v-40zM369 704c202 0 321 -149 321 -359c0 -208 -119 -359 -321 -359c-201 0 -320 151 -320 359c0 210 119 359 320 359zM369 36c149 0 252 116 252 309c0 194 -103 309 -252 309c-148 0 -251 -115 -251 -309c0 -193 103 -309 251 -309z" />
    <glyph glyph-name="Oslash" unicode="&#xd8;" horiz-adv-x="733" 
d="M699 641l-68 -68c40 -60 62 -139 62 -228c0 -208 -119 -359 -321 -359c-98 0 -177 36 -232 96l-64 -64l-31 31l68 68c-40 61 -62 139 -62 228c0 210 119 359 321 359c98 0 177 -35 232 -96l64 64zM120 345c0 -72 14 -133 40 -181l400 400c-45 58 -110 90 -188 90
c-149 0 -252 -115 -252 -309zM624 345c0 72 -14 133 -40 181l-400 -400c45 -58 110 -90 188 -90c148 0 252 116 252 309z" />
    <glyph glyph-name="Otilde" unicode="&#xd5;" horiz-adv-x="728" 
d="M317 776c-10 0 -16 -5 -16 -20h-31c0 44 17 59 46 59c18 0 33 -4 60 -13c24 -8 36 -11 45 -11c10 0 16 5 16 20h31c0 -44 -17 -59 -46 -59c-18 0 -33 4 -60 13c-24 8 -36 11 -45 11zM369 704c202 0 321 -149 321 -359c0 -208 -119 -359 -321 -359
c-201 0 -320 151 -320 359c0 210 119 359 320 359zM369 36c149 0 252 116 252 309c0 194 -103 309 -252 309c-148 0 -251 -115 -251 -309c0 -193 103 -309 251 -309z" />
    <glyph glyph-name="OE" unicode="&#x152;" horiz-adv-x="1098" 
d="M1069 51v-51h-448v166l-28 -75c-58 -75 -133 -105 -230 -105c-195 0 -314 157 -314 359c0 203 119 359 314 359c107 0 169 -29 230 -105l28 -75v166h438v-51h-376v-268h350v-52h-350v-268h386zM369 36c152 0 252 121 252 309c0 190 -100 309 -252 309
c-148 0 -251 -119 -251 -309c0 -188 103 -309 251 -309z" />
    <glyph glyph-name="P" unicode="P" horiz-adv-x="569" 
d="M383 686c104 -14 175 -76 175 -193c0 -118 -78 -184 -175 -197c-31 -4 -58 -4 -93 -4h-129v-292h-62v690h191c35 0 62 0 93 -4zM378 350c63 10 113 52 113 143c0 88 -50 129 -113 139c-23 4 -50 5 -83 5h-134v-292h134c33 0 60 1 83 5z" />
    <glyph glyph-name="Thorn" unicode="&#xde;" horiz-adv-x="634" 
d="M386 586c98 -12 172 -70 172 -182c0 -114 -74 -176 -172 -189c-31 -4 -58 -4 -93 -4h-132v-211h-62v690h62v-99h132c35 0 62 -1 93 -5zM377 269c62 10 114 47 114 133c0 85 -52 120 -114 131c-24 4 -51 5 -84 5h-132v-274h132c33 0 60 1 84 5z" />
    <glyph glyph-name="Q" unicode="Q" horiz-adv-x="726" 
d="M690 345c0 -116 -41 -224 -140 -290c50 -5 90 -27 134 -64l-36 -43c-62 44 -96 54 -137 54c-26 0 -43 -3 -71 -9c-22 -5 -44 -7 -71 -7c-201 0 -320 151 -320 359c0 210 119 359 320 359c202 0 321 -149 321 -359zM118 345c0 -193 103 -309 251 -309
c149 0 252 116 252 309c0 194 -103 309 -252 309c-148 0 -251 -115 -251 -309z" />
    <glyph glyph-name="R" unicode="R" horiz-adv-x="601" 
d="M531 184c10 -95 22 -145 46 -184h-69c-17 44 -29 87 -39 177c-9 73 -39 130 -113 134c-18 1 -38 1 -54 1h-141v-312h-62v690h203c35 0 62 0 94 -4c102 -13 170 -69 170 -179c0 -91 -58 -146 -130 -164c59 -24 88 -87 95 -159zM161 364h142c30 0 47 0 70 2
c76 6 126 55 126 136s-43 121 -118 132c-24 3 -46 4 -79 4h-141v-274z" />
    <glyph glyph-name="Racute" unicode="&#x154;" horiz-adv-x="601" 
d="M332 736h-42l54 94h60zM531 184c10 -95 22 -145 46 -184h-69c-17 44 -29 87 -39 177c-9 73 -39 130 -113 134c-18 1 -38 1 -54 1h-141v-312h-62v690h203c35 0 62 0 94 -4c102 -13 170 -69 170 -179c0 -91 -58 -146 -130 -164c59 -24 88 -87 95 -159zM161 364h142
c30 0 47 0 70 2c76 6 126 55 126 136s-43 121 -118 132c-24 3 -46 4 -79 4h-141v-274z" />
    <glyph glyph-name="Rcaron" unicode="&#x158;" horiz-adv-x="601" 
d="M293 736l-66 94h50l39 -66l39 66h50l-67 -94h-45zM531 184c10 -95 22 -145 46 -184h-69c-17 44 -29 87 -39 177c-9 73 -39 130 -113 134c-18 1 -38 1 -54 1h-141v-312h-62v690h203c35 0 62 0 94 -4c102 -13 170 -69 170 -179c0 -91 -58 -146 -130 -164
c59 -24 88 -87 95 -159zM161 364h142c30 0 47 0 70 2c76 6 126 55 126 136s-43 121 -118 132c-24 3 -46 4 -79 4h-141v-274z" />
    <glyph glyph-name="Rcommaaccent" unicode="&#x156;" horiz-adv-x="601" 
d="M531 184c10 -95 22 -145 46 -184h-69c-17 44 -29 87 -39 177c-9 73 -39 130 -113 134c-18 1 -38 1 -54 1h-141v-312h-62v690h203c35 0 62 0 94 -4c102 -13 170 -69 170 -179c0 -91 -58 -146 -130 -164c59 -24 88 -87 95 -159zM161 364h142c30 0 47 0 70 2
c76 6 126 55 126 136s-43 121 -118 132c-24 3 -46 4 -79 4h-141v-274zM288 -51h52v-9l-55 -127h-46z" />
    <glyph glyph-name="S" unicode="S" horiz-adv-x="576" 
d="M303 704c138 0 210 -87 223 -199h-65c-12 94 -72 149 -163 149c-79 0 -152 -41 -152 -123c0 -84 49 -115 167 -145c148 -38 222 -94 222 -208s-100 -192 -232 -192c-140 0 -241 71 -256 204h66c17 -99 93 -154 192 -154c91 0 164 52 164 132c0 89 -52 127 -181 159
c-131 34 -209 80 -209 191c0 112 102 186 224 186z" />
    <glyph glyph-name="Sacute" unicode="&#x15a;" horiz-adv-x="576" 
d="M312 736h-42l54 94h60zM303 704c138 0 210 -87 223 -199h-65c-12 94 -72 149 -163 149c-79 0 -152 -41 -152 -123c0 -84 49 -115 167 -145c148 -38 222 -94 222 -208s-100 -192 -232 -192c-140 0 -241 71 -256 204h66c17 -99 93 -154 192 -154c91 0 164 52 164 132
c0 89 -52 127 -181 159c-131 34 -209 80 -209 191c0 112 102 186 224 186z" />
    <glyph glyph-name="Scaron" unicode="&#x160;" horiz-adv-x="576" 
d="M273 736l-66 94h50l39 -66l39 66h50l-67 -94h-45zM313 386c148 -38 222 -94 222 -208s-100 -192 -232 -192c-140 0 -241 71 -256 204h66c17 -99 93 -154 192 -154c91 0 164 52 164 132c0 89 -52 127 -181 159c-131 34 -209 80 -209 191c0 112 102 186 224 186
c138 0 210 -87 223 -199h-65c-12 94 -72 149 -163 149c-79 0 -152 -41 -152 -123c0 -84 49 -115 167 -145z" />
    <glyph glyph-name="Scedilla" unicode="&#x15e;" horiz-adv-x="576" 
d="M535 178c0 -112 -96 -189 -224 -192l-17 -30c53 -6 84 -33 84 -81c0 -57 -51 -85 -115 -85c-20 0 -37 3 -51 9v36c15 -8 31 -11 53 -11c42 0 68 18 68 50c0 36 -28 56 -97 51l33 62c-122 11 -208 81 -222 203h66c17 -99 93 -154 192 -154c91 0 164 52 164 132
c0 89 -52 127 -181 159c-131 34 -209 80 -209 191c0 112 102 186 224 186c138 0 210 -87 223 -199h-65c-12 94 -72 149 -163 149c-79 0 -152 -41 -152 -123c0 -84 49 -115 167 -145c148 -38 222 -94 222 -208z" />
    <glyph glyph-name="Scommaaccent" unicode="&#x218;" horiz-adv-x="576" 
d="M303 704c138 0 210 -87 223 -199h-65c-12 94 -72 149 -163 149c-79 0 -152 -41 -152 -123c0 -84 49 -115 167 -145c148 -38 222 -94 222 -208s-100 -192 -232 -192c-140 0 -241 71 -256 204h66c17 -99 93 -154 192 -154c91 0 164 52 164 132c0 89 -52 127 -181 159
c-131 34 -209 80 -209 191c0 112 102 186 224 186zM327 -60l-55 -127h-46l49 136h52v-9z" />
    <glyph glyph-name="T" unicode="T" horiz-adv-x="600" 
d="M601 639h-253v-639h-62v639h-253v51h568v-51z" />
    <glyph glyph-name="Tbar" unicode="&#x166;" horiz-adv-x="600" 
d="M348 639v-284h124v-43h-124v-312h-62v312h-124v43h124v284h-253v51h568v-51h-253z" />
    <glyph glyph-name="Tcaron" unicode="&#x164;" horiz-adv-x="600" 
d="M295 736l-66 94h50l39 -66l39 66h50l-67 -94h-45zM601 639h-253v-639h-62v639h-253v51h568v-51z" />
    <glyph glyph-name="Tcedilla" unicode="&#x162;" horiz-adv-x="600" 
d="M341 0l-25 -44c53 -6 84 -33 84 -81c0 -57 -51 -85 -115 -85c-20 0 -37 3 -51 9v36c15 -8 31 -11 53 -11c42 0 68 18 68 50c0 36 -28 56 -97 51l40 75h-12v639h-253v51h568v-51h-253v-639h-7z" />
    <glyph glyph-name="uni021A" unicode="&#x21a;" horiz-adv-x="600" 
d="M601 690v-51h-253v-639h-62v639h-253v51h568zM297 -51h52v-9l-55 -127h-46z" />
    <glyph glyph-name="U" unicode="U" horiz-adv-x="651" 
d="M583 690v-443c0 -20 -1 -40 -3 -64c-8 -112 -85 -197 -242 -197c-158 0 -234 85 -243 197c-2 24 -2 44 -2 64v443h62v-440c0 -22 0 -42 2 -61c8 -87 65 -153 181 -153c115 0 172 66 180 153c2 19 3 39 3 61v440h62z" />
    <glyph glyph-name="Uacute" unicode="&#xda;" horiz-adv-x="651" 
d="M355 736h-42l54 94h60zM583 690v-443c0 -20 -1 -40 -3 -64c-8 -112 -85 -197 -242 -197c-158 0 -234 85 -243 197c-2 24 -2 44 -2 64v443h62v-440c0 -22 0 -42 2 -61c8 -87 65 -153 181 -153c115 0 172 66 180 153c2 19 3 39 3 61v440h62z" />
    <glyph glyph-name="Ucircumflex" unicode="&#xdb;" horiz-adv-x="651" 
d="M299 736h-49l66 94h45l67 -94h-51l-39 66zM583 690v-443c0 -20 -1 -40 -3 -64c-8 -112 -85 -197 -242 -197c-158 0 -234 85 -243 197c-2 24 -2 44 -2 64v443h62v-440c0 -22 0 -42 2 -61c8 -87 65 -153 181 -153c115 0 172 66 180 153c2 19 3 39 3 61v440h62z" />
    <glyph glyph-name="Udieresis" unicode="&#xdc;" horiz-adv-x="651" 
d="M281 819c20 0 36 -16 36 -36s-16 -36 -36 -36s-36 16 -36 36s16 36 36 36zM395 819c20 0 36 -16 36 -36s-16 -36 -36 -36s-36 16 -36 36s16 36 36 36zM583 690v-443c0 -20 -1 -40 -3 -64c-8 -112 -85 -197 -242 -197c-158 0 -234 85 -243 197c-2 24 -2 44 -2 64v443h62
v-440c0 -22 0 -42 2 -61c8 -87 65 -153 181 -153c115 0 172 66 180 153c2 19 3 39 3 61v440h62z" />
    <glyph glyph-name="Ugrave" unicode="&#xd9;" horiz-adv-x="651" 
d="M361 736h-42l-72 94h61zM583 690v-443c0 -20 -1 -40 -3 -64c-8 -112 -85 -197 -242 -197c-158 0 -234 85 -243 197c-2 24 -2 44 -2 64v443h62v-440c0 -22 0 -42 2 -61c8 -87 65 -153 181 -153c115 0 172 66 180 153c2 19 3 39 3 61v440h62z" />
    <glyph glyph-name="Uhungarumlaut" unicode="&#x170;" horiz-adv-x="651" 
d="M295 736h-42l53 94h61zM396 736h-42l53 94h61zM583 690v-443c0 -20 -1 -40 -3 -64c-8 -112 -85 -197 -242 -197c-158 0 -234 85 -243 197c-2 24 -2 44 -2 64v443h62v-440c0 -22 0 -42 2 -61c8 -87 65 -153 181 -153c115 0 172 66 180 153c2 19 3 39 3 61v440h62z" />
    <glyph glyph-name="Umacron" unicode="&#x16a;" horiz-adv-x="651" 
d="M439 763h-202v40h202v-40zM583 690v-443c0 -20 -1 -40 -3 -64c-8 -112 -85 -197 -242 -197c-158 0 -234 85 -243 197c-2 24 -2 44 -2 64v443h62v-440c0 -22 0 -42 2 -61c8 -87 65 -153 181 -153c115 0 172 66 180 153c2 19 3 39 3 61v440h62z" />
    <glyph glyph-name="Uogonek" unicode="&#x172;" horiz-adv-x="651" 
d="M583 690v-443c0 -20 -1 -40 -3 -64c-6 -85 -52 -154 -142 -183c-58 -17 -104 -67 -104 -131c0 -37 16 -51 45 -51c21 0 39 7 59 24v-39c-23 -18 -50 -26 -82 -26c-46 0 -82 19 -82 79c0 55 29 100 71 130h-7c-158 0 -234 85 -243 197c-2 24 -2 44 -2 64v443h62v-440
c0 -22 0 -42 2 -61c8 -87 65 -153 181 -153c115 0 172 66 180 153c2 19 3 39 3 61v440h62z" />
    <glyph glyph-name="Uring" unicode="&#x16e;" horiz-adv-x="651" 
d="M338 863c46 0 81 -29 81 -72s-35 -73 -81 -73s-80 30 -80 73s34 72 80 72zM338 832c-24 0 -40 -18 -40 -41c0 -24 16 -42 40 -42s40 18 40 42c0 23 -16 41 -40 41zM583 690v-443c0 -20 -1 -40 -3 -64c-8 -112 -85 -197 -242 -197c-158 0 -234 85 -243 197
c-2 24 -2 44 -2 64v443h62v-440c0 -22 0 -42 2 -61c8 -87 65 -153 181 -153c115 0 172 66 180 153c2 19 3 39 3 61v440h62z" />
    <glyph glyph-name="V" unicode="V" horiz-adv-x="607" 
d="M362 0h-83l-249 690h67l225 -642l229 642h67z" />
    <glyph glyph-name="W" unicode="W" horiz-adv-x="904" 
d="M900 690l-189 -690h-81l-167 618l-176 -618h-82l-179 690h70l153 -634l174 624h83l167 -624l162 634h65z" />
    <glyph glyph-name="Wacute" unicode="&#x1e82;" horiz-adv-x="904" 
d="M477 736h-42l54 94h60zM900 690l-189 -690h-81l-167 618l-176 -618h-82l-179 690h70l153 -634l174 624h83l167 -624l162 634h65z" />
    <glyph glyph-name="Wcircumflex" unicode="&#x174;" horiz-adv-x="904" 
d="M421 736h-49l66 94h45l67 -94h-51l-39 66zM900 690l-189 -690h-81l-167 618l-176 -618h-82l-179 690h70l153 -634l174 624h83l167 -624l162 634h65z" />
    <glyph glyph-name="Wdieresis" unicode="&#x1e84;" horiz-adv-x="904" 
d="M403 747c-20 0 -36 16 -36 36s16 36 36 36s36 -16 36 -36s-16 -36 -36 -36zM517 747c-20 0 -36 16 -36 36s16 36 36 36s36 -16 36 -36s-16 -36 -36 -36zM900 690l-189 -690h-81l-167 618l-176 -618h-82l-179 690h70l153 -634l174 624h83l167 -624l162 634h65z" />
    <glyph glyph-name="Wgrave" unicode="&#x1e80;" horiz-adv-x="904" 
d="M441 736l-72 94h61l53 -94h-42zM900 690l-189 -690h-81l-167 618l-176 -618h-82l-179 690h70l153 -634l174 624h83l167 -624l162 634h65z" />
    <glyph glyph-name="X" unicode="X" horiz-adv-x="605" 
d="M524 0l-215 306l-210 -306h-73l247 347l-229 343h70l198 -300l209 300h73l-247 -341l251 -349h-74z" />
    <glyph glyph-name="Y" unicode="Y" horiz-adv-x="568" 
d="M327 276v-276h-62v275l-244 415h71l207 -354l202 354h71z" />
    <glyph glyph-name="Yacute" unicode="&#xdd;" horiz-adv-x="568" 
d="M313 736h-42l54 94h60zM327 276v-276h-62v275l-244 415h71l207 -354l202 354h71z" />
    <glyph glyph-name="Ycircumflex" unicode="&#x176;" horiz-adv-x="568" 
d="M257 736h-49l66 94h45l67 -94h-51l-39 66zM327 276v-276h-62v275l-244 415h71l207 -354l202 354h71z" />
    <glyph glyph-name="Ydieresis" unicode="&#x178;" horiz-adv-x="568" 
d="M239 747c-20 0 -36 16 -36 36s16 36 36 36s36 -16 36 -36s-16 -36 -36 -36zM353 747c-20 0 -36 16 -36 36s16 36 36 36s36 -16 36 -36s-16 -36 -36 -36zM327 276v-276h-62v275l-244 415h71l207 -354l202 354h71z" />
    <glyph glyph-name="Ygrave" unicode="&#x1ef2;" horiz-adv-x="568" 
d="M277 736l-72 94h61l53 -94h-42zM327 276v-276h-62v275l-244 415h71l207 -354l202 354h71z" />
    <glyph glyph-name="Z" unicode="Z" horiz-adv-x="571" 
d="M548 52v-52h-506v48l428 590h-400v52h472v-51l-426 -587h432z" />
    <glyph glyph-name="Zacute" unicode="&#x179;" horiz-adv-x="571" 
d="M311 736h-42l54 94h60zM548 52v-52h-506v48l428 590h-400v52h472v-51l-426 -587h432z" />
    <glyph glyph-name="Zcaron" unicode="&#x17d;" horiz-adv-x="571" 
d="M272 736l-66 94h50l39 -66l39 66h50l-67 -94h-45zM548 52v-52h-506v48l428 590h-400v52h472v-51l-426 -587h432z" />
    <glyph glyph-name="Zdotaccent" unicode="&#x17b;" horiz-adv-x="571" 
d="M294 747c-20 0 -36 16 -36 36s16 36 36 36s36 -16 36 -36s-16 -36 -36 -36zM548 52v-52h-506v48l428 590h-400v52h472v-51l-426 -587h432z" />
    <glyph glyph-name="a" unicode="a" horiz-adv-x="517" 
d="M390 0l-9 96l-26 -56c-37 -37 -89 -54 -147 -54c-98 0 -168 51 -168 147c0 121 115 180 306 180h34v19c0 24 0 44 -2 65c-5 61 -42 96 -118 96c-73 0 -125 -39 -133 -121h-65c7 104 86 171 198 171c117 0 172 -53 180 -140c2 -23 2 -45 2 -70v-185c0 -47 3 -85 10 -148
h-62zM227 35c92 0 153 70 153 169v61c-149 10 -272 -25 -272 -127c0 -67 42 -103 119 -103z" />
    <glyph glyph-name="aacute" unicode="&#xe1;" horiz-adv-x="517" 
d="M277 580h-42l61 110h60zM390 0l-9 96l-26 -56c-37 -37 -89 -54 -147 -54c-98 0 -168 51 -168 147c0 121 115 180 306 180h34v19c0 24 0 44 -2 65c-5 61 -42 96 -118 96c-73 0 -125 -39 -133 -121h-65c7 104 86 171 198 171c117 0 172 -53 180 -140c2 -23 2 -45 2 -70
v-185c0 -47 3 -85 10 -148h-62zM227 35c92 0 153 70 153 169v61c-149 10 -272 -25 -272 -127c0 -67 42 -103 119 -103z" />
    <glyph glyph-name="abreve" unicode="&#x103;" horiz-adv-x="517" 
d="M261 568c-68 0 -98 43 -98 122h40c1 -56 23 -80 58 -80s57 24 58 80h40c0 -79 -31 -122 -98 -122zM390 0l-9 96l-26 -56c-37 -37 -89 -54 -147 -54c-98 0 -168 51 -168 147c0 121 115 180 306 180h34v19c0 24 0 44 -2 65c-5 61 -42 96 -118 96c-73 0 -125 -39 -133 -121
h-65c7 104 86 171 198 171c117 0 172 -53 180 -140c2 -23 2 -45 2 -70v-185c0 -47 3 -85 10 -148h-62zM227 35c92 0 153 70 153 169v61c-149 10 -272 -25 -272 -127c0 -67 42 -103 119 -103z" />
    <glyph glyph-name="acircumflex" unicode="&#xe2;" horiz-adv-x="517" 
d="M221 580h-48l66 110h45l67 -110h-49l-41 75zM390 0l-9 96l-26 -56c-37 -37 -89 -54 -147 -54c-98 0 -168 51 -168 147c0 121 115 180 306 180h34v19c0 24 0 44 -2 65c-5 61 -42 96 -118 96c-73 0 -125 -39 -133 -121h-65c7 104 86 171 198 171c117 0 172 -53 180 -140
c2 -23 2 -45 2 -70v-185c0 -47 3 -85 10 -148h-62zM227 35c92 0 153 70 153 169v61c-149 10 -272 -25 -272 -127c0 -67 42 -103 119 -103z" />
    <glyph glyph-name="adieresis" unicode="&#xe4;" horiz-adv-x="517" 
d="M200 594c-19 0 -36 17 -36 37c0 19 17 36 36 36c20 0 37 -17 37 -36c0 -20 -17 -37 -37 -37zM322 594c-20 0 -37 17 -37 37c0 19 17 36 37 36c19 0 36 -17 36 -36c0 -20 -17 -37 -36 -37zM390 0l-9 96l-26 -56c-37 -37 -89 -54 -147 -54c-98 0 -168 51 -168 147
c0 121 115 180 306 180h34v19c0 24 0 44 -2 65c-5 61 -42 96 -118 96c-73 0 -125 -39 -133 -121h-65c7 104 86 171 198 171c117 0 172 -53 180 -140c2 -23 2 -45 2 -70v-185c0 -47 3 -85 10 -148h-62zM227 35c92 0 153 70 153 169v61c-149 10 -272 -25 -272 -127
c0 -67 42 -103 119 -103z" />
    <glyph glyph-name="agrave" unicode="&#xe0;" horiz-adv-x="517" 
d="M237 580l-79 110h61l61 -110h-43zM390 0l-9 96l-26 -56c-37 -37 -89 -54 -147 -54c-98 0 -168 51 -168 147c0 121 115 180 306 180h34v19c0 24 0 44 -2 65c-5 61 -42 96 -118 96c-73 0 -125 -39 -133 -121h-65c7 104 86 171 198 171c117 0 172 -53 180 -140
c2 -23 2 -45 2 -70v-185c0 -47 3 -85 10 -148h-62zM227 35c92 0 153 70 153 169v61c-149 10 -272 -25 -272 -127c0 -67 42 -103 119 -103z" />
    <glyph glyph-name="amacron" unicode="&#x101;" horiz-adv-x="517" 
d="M362 610h-202v40h202v-40zM390 0l-9 96l-26 -56c-37 -37 -89 -54 -147 -54c-98 0 -168 51 -168 147c0 121 115 180 306 180h34v19c0 24 0 44 -2 65c-5 61 -42 96 -118 96c-73 0 -125 -39 -133 -121h-65c7 104 86 171 198 171c117 0 172 -53 180 -140c2 -23 2 -45 2 -70
v-185c0 -47 3 -85 10 -148h-62zM227 35c92 0 153 70 153 169v61c-149 10 -272 -25 -272 -127c0 -67 42 -103 119 -103z" />
    <glyph glyph-name="aogonek" unicode="&#x105;" horiz-adv-x="517" 
d="M452 0h-18c-59 -13 -104 -67 -104 -131c0 -37 16 -51 45 -51c21 0 39 7 59 24v-39c-23 -18 -50 -26 -82 -26c-46 0 -82 19 -82 79c0 75 53 132 119 156l-8 84l-26 -56c-37 -37 -89 -54 -147 -54c-98 0 -168 51 -168 147c0 121 115 180 306 180h34v19c0 24 0 44 -2 65
c-5 61 -42 96 -118 96c-73 0 -125 -39 -133 -121h-65c7 104 86 171 198 171c117 0 172 -53 180 -140c2 -23 2 -45 2 -70v-185c0 -47 3 -85 10 -148zM227 35c92 0 153 70 153 169v61c-149 10 -272 -25 -272 -127c0 -67 42 -103 119 -103z" />
    <glyph glyph-name="aring" unicode="&#xe5;" horiz-adv-x="517" 
d="M261 568c-46 0 -80 31 -80 75c0 45 34 76 80 76s80 -31 80 -76c0 -44 -34 -75 -80 -75zM261 689c-24 0 -40 -19 -40 -46s16 -45 40 -45s40 18 40 45s-16 46 -40 46zM390 0l-9 96l-26 -56c-37 -37 -89 -54 -147 -54c-98 0 -168 51 -168 147c0 121 115 180 306 180h34v19
c0 24 0 44 -2 65c-5 61 -42 96 -118 96c-73 0 -125 -39 -133 -121h-65c7 104 86 171 198 171c117 0 172 -53 180 -140c2 -23 2 -45 2 -70v-185c0 -47 3 -85 10 -148h-62zM227 35c92 0 153 70 153 169v61c-149 10 -272 -25 -272 -127c0 -67 42 -103 119 -103z" />
    <glyph glyph-name="atilde" unicode="&#xe3;" horiz-adv-x="517" 
d="M209 632c-10 0 -16 -6 -16 -21h-31c0 45 17 60 46 60c18 0 33 -4 60 -13c24 -8 36 -11 45 -11c10 0 16 5 16 20h31c0 -45 -17 -60 -46 -60c-18 0 -33 4 -60 13c-24 8 -36 12 -45 12zM390 0l-9 96l-26 -56c-37 -37 -89 -54 -147 -54c-98 0 -168 51 -168 147
c0 121 115 180 306 180h34v19c0 24 0 44 -2 65c-5 61 -42 96 -118 96c-73 0 -125 -39 -133 -121h-65c7 104 86 171 198 171c117 0 172 -53 180 -140c2 -23 2 -45 2 -70v-185c0 -47 3 -85 10 -148h-62zM227 35c92 0 153 70 153 169v61c-149 10 -272 -25 -272 -127
c0 -67 42 -103 119 -103z" />
    <glyph glyph-name="ae" unicode="&#xe6;" horiz-adv-x="901" 
d="M862 279c0 -7 0 -17 -1 -33h-401c7 -151 82 -211 171 -211c74 0 140 45 159 132h65c-25 -123 -122 -181 -227 -181c-86 0 -167 37 -204 133l-25 -54c-53 -57 -113 -79 -183 -79c-94 0 -176 49 -176 147c0 121 129 163 324 163h34v26c0 108 -39 171 -136 171
c-75 0 -130 -39 -137 -121h-64c4 104 83 171 201 171c101 0 157 -39 181 -113c40 73 109 113 195 113c150 0 224 -118 224 -264zM460 295h339c-7 137 -73 198 -163 198c-94 0 -167 -65 -176 -198zM398 217v29c-159 7 -290 -12 -290 -108c0 -67 48 -103 123 -103
c95 0 167 72 167 182z" />
    <glyph glyph-name="b" unicode="b" horiz-adv-x="586" 
d="M320 543c148 0 236 -115 236 -272c0 -192 -118 -285 -252 -285c-52 0 -103 16 -136 47l-33 57v-90h-62v735h62v-304l35 58c37 36 89 54 150 54zM304 35c106 0 184 85 184 228c0 127 -61 230 -177 230c-94 0 -176 -56 -176 -216v-40c0 -151 91 -202 169 -202z" />
    <glyph glyph-name="c" unicode="c" horiz-adv-x="525" 
d="M276 543c122 0 203 -75 219 -187h-65c-18 89 -71 138 -156 138c-89 0 -176 -72 -176 -225c0 -163 82 -234 171 -234c78 0 138 45 157 130h64c-24 -117 -111 -179 -225 -179c-132 0 -235 91 -235 278c0 175 113 279 246 279z" />
    <glyph glyph-name="cacute" unicode="&#x107;" horiz-adv-x="525" 
d="M284 580h-42l61 110h60zM276 543c122 0 203 -75 219 -187h-65c-18 89 -71 138 -156 138c-89 0 -176 -72 -176 -225c0 -163 82 -234 171 -234c78 0 138 45 157 130h64c-24 -117 -111 -179 -225 -179c-132 0 -235 91 -235 278c0 175 113 279 246 279z" />
    <glyph glyph-name="ccaron" unicode="&#x10d;" horiz-adv-x="525" 
d="M246 580l-66 110h49l40 -75l41 75h48l-67 -110h-45zM269 35c78 0 138 45 157 130h64c-24 -117 -111 -179 -225 -179c-132 0 -235 91 -235 278c0 175 113 279 246 279c122 0 203 -75 219 -187h-65c-18 89 -71 138 -156 138c-89 0 -176 -72 -176 -225
c0 -163 82 -234 171 -234z" />
    <glyph glyph-name="ccedilla" unicode="&#xe7;" horiz-adv-x="525" 
d="M269 35c78 0 138 45 157 130h64c-23 -114 -106 -176 -216 -179l-17 -30c53 -6 84 -33 84 -81c0 -57 -51 -85 -115 -85c-20 0 -37 3 -51 9v36c15 -8 31 -11 53 -11c42 0 68 18 68 50c0 36 -28 56 -97 51l33 63c-116 14 -202 105 -202 276c0 175 113 279 246 279
c122 0 203 -75 219 -187h-65c-18 89 -71 138 -156 138c-89 0 -176 -72 -176 -225c0 -163 82 -234 171 -234z" />
    <glyph glyph-name="cdotaccent" unicode="&#x10b;" horiz-adv-x="525" 
d="M268 685c24 0 42 -18 42 -42c0 -23 -18 -42 -42 -42c-23 0 -42 19 -42 42c0 24 19 42 42 42zM276 543c122 0 203 -75 219 -187h-65c-18 89 -71 138 -156 138c-89 0 -176 -72 -176 -225c0 -163 82 -234 171 -234c78 0 138 45 157 130h64c-24 -117 -111 -179 -225 -179
c-132 0 -235 91 -235 278c0 175 113 279 246 279z" />
    <glyph glyph-name="d" unicode="d" horiz-adv-x="588" 
d="M513 735v-735h-62v98l-35 -58c-37 -37 -89 -54 -150 -54c-148 0 -236 115 -236 272c0 192 118 285 252 285c52 0 103 -16 136 -48l33 -57v297h62zM275 35c94 0 176 57 176 217v40c0 150 -91 201 -169 201c-106 0 -184 -84 -184 -227c0 -127 61 -231 177 -231z" />
    <glyph glyph-name="eth" unicode="&#xf0;" 
d="M470 674l-52 -21c66 -74 96 -184 96 -346c0 -230 -111 -321 -248 -321c-155 0 -236 116 -236 271c0 174 104 287 239 287c49 0 85 -10 123 -35l46 -62c-7 80 -32 140 -74 183l-149 -61l-16 40l128 53c-26 17 -55 31 -89 41l39 42c42 -15 77 -35 108 -60l69 29zM447 271
v26c0 133 -83 198 -172 198c-101 0 -177 -88 -177 -231c0 -144 67 -229 173 -229c103 0 176 81 176 236z" />
    <glyph glyph-name="dcaron" unicode="&#x10f;" horiz-adv-x="588" 
d="M451 735h62v-735h-62v98l-35 -58c-37 -37 -89 -54 -150 -54c-148 0 -236 115 -236 272c0 192 118 285 252 285c52 0 103 -16 136 -48l33 -57v297zM641 735v-9l-55 -127h-46l49 136h52zM275 35c94 0 176 57 176 217v40c0 150 -91 201 -169 201c-106 0 -184 -84 -184 -227
c0 -127 61 -231 177 -231z" />
    <glyph glyph-name="dcroat" unicode="&#x111;" horiz-adv-x="592" 
d="M556 602h-43v-602h-62v98l-35 -58c-37 -37 -89 -54 -150 -54c-148 0 -236 115 -236 272c0 192 118 285 252 285c52 0 103 -16 136 -48l33 -57v164h-116v43h116v90h62v-90h43v-43zM275 35c94 0 176 57 176 217v40c0 150 -91 201 -169 201c-106 0 -184 -84 -184 -227
c0 -127 61 -231 177 -231z" />
    <glyph glyph-name="e" unicode="e" horiz-adv-x="539" 
d="M500 279c0 -7 0 -17 -2 -33h-401c7 -156 86 -211 172 -211c74 0 140 45 159 132h65c-25 -123 -122 -181 -228 -181c-132 0 -235 92 -235 278c0 170 106 279 245 279c148 0 225 -118 225 -264zM273 493c-87 0 -167 -66 -176 -198h340c-7 136 -75 198 -164 198z" />
    <glyph glyph-name="eacute" unicode="&#xe9;" horiz-adv-x="539" 
d="M285 580h-42l61 110h60zM500 279c0 -7 0 -17 -2 -33h-401c7 -156 86 -211 172 -211c74 0 140 45 159 132h65c-25 -123 -122 -181 -228 -181c-132 0 -235 92 -235 278c0 170 106 279 245 279c148 0 225 -118 225 -264zM273 493c-87 0 -167 -66 -176 -198h340
c-7 136 -75 198 -164 198z" />
    <glyph glyph-name="ecaron" unicode="&#x11b;" horiz-adv-x="539" 
d="M247 580l-66 110h49l40 -75l41 75h48l-67 -110h-45zM500 279c0 -7 0 -17 -2 -33h-401c7 -156 86 -211 172 -211c74 0 140 45 159 132h65c-25 -123 -122 -181 -228 -181c-132 0 -235 92 -235 278c0 170 106 279 245 279c148 0 225 -118 225 -264zM273 493
c-87 0 -167 -66 -176 -198h340c-7 136 -75 198 -164 198z" />
    <glyph glyph-name="ecircumflex" unicode="&#xea;" horiz-adv-x="539" 
d="M229 580h-48l66 110h45l67 -110h-49l-41 75zM500 279c0 -7 0 -17 -2 -33h-401c7 -156 86 -211 172 -211c74 0 140 45 159 132h65c-25 -123 -122 -181 -228 -181c-132 0 -235 92 -235 278c0 170 106 279 245 279c148 0 225 -118 225 -264zM273 493
c-87 0 -167 -66 -176 -198h340c-7 136 -75 198 -164 198z" />
    <glyph glyph-name="edieresis" unicode="&#xeb;" horiz-adv-x="539" 
d="M208 594c-19 0 -36 17 -36 37c0 19 17 36 36 36c20 0 37 -17 37 -36c0 -20 -17 -37 -37 -37zM330 594c-20 0 -37 17 -37 37c0 19 17 36 37 36c19 0 36 -17 36 -36c0 -20 -17 -37 -36 -37zM500 279c0 -7 0 -17 -2 -33h-401c7 -156 86 -211 172 -211c74 0 140 45 159 132
h65c-25 -123 -122 -181 -228 -181c-132 0 -235 92 -235 278c0 170 106 279 245 279c148 0 225 -118 225 -264zM273 493c-87 0 -167 -66 -176 -198h340c-7 136 -75 198 -164 198z" />
    <glyph glyph-name="edotaccent" unicode="&#x117;" horiz-adv-x="539" 
d="M269 601c-23 0 -42 19 -42 42c0 24 19 42 42 42c24 0 42 -18 42 -42c0 -23 -18 -42 -42 -42zM500 279c0 -7 0 -17 -2 -33h-401c7 -156 86 -211 172 -211c74 0 140 45 159 132h65c-25 -123 -122 -181 -228 -181c-132 0 -235 92 -235 278c0 170 106 279 245 279
c148 0 225 -118 225 -264zM273 493c-87 0 -167 -66 -176 -198h340c-7 136 -75 198 -164 198z" />
    <glyph glyph-name="egrave" unicode="&#xe8;" horiz-adv-x="539" 
d="M253 580l-79 110h61l61 -110h-43zM500 279c0 -7 0 -17 -2 -33h-401c7 -156 86 -211 172 -211c74 0 140 45 159 132h65c-25 -123 -122 -181 -228 -181c-132 0 -235 92 -235 278c0 170 106 279 245 279c148 0 225 -118 225 -264zM273 493c-87 0 -167 -66 -176 -198h340
c-7 136 -75 198 -164 198z" />
    <glyph glyph-name="emacron" unicode="&#x113;" horiz-adv-x="539" 
d="M370 610h-202v40h202v-40zM500 279c0 -7 0 -17 -2 -33h-401c7 -156 86 -211 172 -211c74 0 140 45 159 132h65c-25 -123 -122 -181 -228 -181c-132 0 -235 92 -235 278c0 170 106 279 245 279c148 0 225 -118 225 -264zM273 493c-87 0 -167 -66 -176 -198h340
c-7 136 -75 198 -164 198z" />
    <glyph glyph-name="eogonek" unicode="&#x119;" horiz-adv-x="539" 
d="M500 279c0 -7 0 -17 -2 -33h-401c7 -156 86 -211 172 -211c74 0 140 45 159 132h65c-20 -96 -83 -153 -161 -173c-49 -19 -85 -68 -85 -125c0 -37 16 -51 45 -51c21 0 39 7 59 24v-39c-23 -18 -50 -26 -82 -26c-46 0 -82 19 -82 79c0 55 29 100 70 130
c-128 4 -227 96 -227 278c0 170 106 279 245 279c148 0 225 -118 225 -264zM273 493c-87 0 -167 -66 -176 -198h340c-7 136 -75 198 -164 198z" />
    <glyph glyph-name="f" unicode="f" horiz-adv-x="268" 
d="M144 641c-2 -17 -2 -37 -2 -52v-64h108v-50h-108v-475h-62v475h-57v50h57v59c0 18 0 40 2 59c8 73 57 111 122 111c21 0 38 -2 56 -5v-52c-70 14 -110 -9 -116 -56z" />
    <glyph glyph-name="g" unicode="g" horiz-adv-x="588" 
d="M513 530v-396c0 -52 0 -93 -1 -124c-5 -141 -93 -224 -238 -224c-131 0 -211 54 -224 169l-1 12h62l2 -12c9 -78 72 -120 161 -120c112 0 172 67 176 172c1 29 1 50 1 78v13l-35 -58c-37 -37 -89 -54 -150 -54c-148 0 -236 115 -236 272c0 192 118 285 252 285
c52 0 103 -16 136 -48l33 -57v92h62zM275 35c94 0 176 57 176 217v40c0 150 -91 201 -169 201c-106 0 -184 -84 -184 -227c0 -127 61 -231 177 -231z" />
    <glyph glyph-name="gbreve" unicode="&#x11f;" horiz-adv-x="588" 
d="M290 568c-68 0 -98 43 -98 122h40c1 -56 23 -80 58 -80s57 24 58 80h40c0 -79 -31 -122 -98 -122zM513 530v-396c0 -52 0 -93 -1 -124c-5 -141 -93 -224 -238 -224c-131 0 -211 54 -224 169l-1 12h62l2 -12c9 -78 72 -120 161 -120c112 0 172 67 176 172c1 29 1 50 1 78
v13l-35 -58c-37 -37 -89 -54 -150 -54c-148 0 -236 115 -236 272c0 192 118 285 252 285c52 0 103 -16 136 -48l33 -57v92h62zM275 35c94 0 176 57 176 217v40c0 150 -91 201 -169 201c-106 0 -184 -84 -184 -227c0 -127 61 -231 177 -231z" />
    <glyph glyph-name="gcommaaccent" unicode="&#x123;" horiz-adv-x="588" 
d="M314 581h-52v9l56 127h45zM513 530v-396c0 -52 0 -93 -1 -124c-5 -141 -93 -224 -238 -224c-131 0 -211 54 -224 169l-1 12h62l2 -12c9 -78 72 -120 161 -120c112 0 172 67 176 172c1 29 1 50 1 78v13l-35 -58c-37 -37 -89 -54 -150 -54c-148 0 -236 115 -236 272
c0 192 118 285 252 285c52 0 103 -16 136 -48l33 -57v92h62zM275 35c94 0 176 57 176 217v40c0 150 -91 201 -169 201c-106 0 -184 -84 -184 -227c0 -127 61 -231 177 -231z" />
    <glyph glyph-name="gdotaccent" unicode="&#x121;" horiz-adv-x="588" 
d="M290 601c-23 0 -42 19 -42 42c0 24 19 42 42 42c24 0 42 -18 42 -42c0 -23 -18 -42 -42 -42zM513 530v-396c0 -52 0 -93 -1 -124c-5 -141 -93 -224 -238 -224c-131 0 -211 54 -224 169l-1 12h62l2 -12c9 -78 72 -120 161 -120c112 0 172 67 176 172c1 29 1 50 1 78v13
l-35 -58c-37 -37 -89 -54 -150 -54c-148 0 -236 115 -236 272c0 192 118 285 252 285c52 0 103 -16 136 -48l33 -57v92h62zM275 35c94 0 176 57 176 217v40c0 150 -91 201 -169 201c-106 0 -184 -84 -184 -227c0 -127 61 -231 177 -231z" />
    <glyph glyph-name="h" unicode="h" horiz-adv-x="569" 
d="M498 385c2 -27 2 -46 2 -89v-296h-62v289c0 30 0 53 -2 80c-7 72 -47 124 -136 123c-88 -1 -165 -64 -165 -229v-263h-62v740h62v-313l28 57c43 43 90 59 149 59c112 0 176 -61 186 -158z" />
    <glyph glyph-name="hbar" unicode="&#x127;" horiz-adv-x="583" 
d="M511 385c3 -27 3 -46 3 -89v-296h-62v289c0 30 0 53 -3 80c-7 72 -46 124 -135 123c-88 -1 -165 -64 -165 -229v-263h-62v602h-54v43h54v95h62v-95h106v-43h-106v-175l28 57c43 43 90 59 148 59c113 0 177 -61 186 -158z" />
    <glyph glyph-name="i" unicode="i" horiz-adv-x="210" 
d="M104 685c24 0 42 -18 42 -42c0 -23 -18 -42 -42 -42c-23 0 -42 19 -42 42c0 24 19 42 42 42zM135 0h-62v529h62v-529z" />
    <glyph glyph-name="dotlessi" unicode="&#x131;" horiz-adv-x="210" 
d="M135 0h-62v529h62v-529z" />
    <glyph glyph-name="iacute" unicode="&#xed;" horiz-adv-x="210" 
d="M120 580h-42l61 110h60zM135 0h-62v529h62v-529z" />
    <glyph glyph-name="icircumflex" unicode="&#xee;" horiz-adv-x="210" 
d="M194 580h-49l-41 75l-40 -75h-48l66 110h45zM73 529h62v-529h-62v529z" />
    <glyph glyph-name="idieresis" unicode="&#xef;" horiz-adv-x="210" 
d="M43 667c20 0 37 -17 37 -36c0 -20 -17 -37 -37 -37c-19 0 -36 17 -36 37c0 19 17 36 36 36zM165 667c19 0 36 -17 36 -36c0 -20 -17 -37 -36 -37c-20 0 -37 17 -37 37c0 19 17 36 37 36zM135 0h-62v529h62v-529z" />
    <glyph glyph-name="igrave" unicode="&#xec;" horiz-adv-x="210" 
d="M123 580h-43l-79 110h61zM135 0h-62v529h62v-529z" />
    <glyph glyph-name="ij" unicode="&#x133;" horiz-adv-x="414" 
d="M104 685c24 0 42 -18 42 -42c0 -23 -18 -42 -42 -42c-23 0 -42 19 -42 42c0 24 19 42 42 42zM308 685c24 0 42 -18 42 -42c0 -23 -18 -42 -42 -42c-23 0 -42 19 -42 42c0 24 19 42 42 42zM135 0h-62v529h62v-529zM339 529v-585c0 -20 0 -42 -2 -60
c-6 -62 -41 -94 -108 -94c-14 0 -26 0 -39 3v51c55 -7 82 7 86 51c1 14 1 27 1 42v592h62z" />
    <glyph glyph-name="imacron" unicode="&#x12b;" horiz-adv-x="210" 
d="M205 610h-202v40h202v-40zM135 0h-62v529h62v-529z" />
    <glyph glyph-name="iogonek" unicode="&#x12f;" horiz-adv-x="210" 
d="M104 601c-23 0 -42 19 -42 42c0 24 19 42 42 42c24 0 42 -18 42 -42c0 -23 -18 -42 -42 -42zM73 529h62v-529h-18c-59 -13 -104 -67 -104 -131c0 -37 16 -51 45 -51c21 0 39 7 59 24v-39c-23 -18 -50 -26 -82 -26c-46 0 -82 19 -82 79c0 75 54 133 120 156v517z" />
    <glyph glyph-name="j" unicode="j" horiz-adv-x="204" 
d="M98 685c24 0 42 -18 42 -42c0 -23 -18 -42 -42 -42c-23 0 -42 19 -42 42c0 24 19 42 42 42zM129 529v-585c0 -20 0 -42 -2 -60c-6 -62 -41 -94 -108 -94c-14 0 -26 0 -39 3v51c55 -7 82 7 86 51c1 14 1 27 1 42v592h62z" />
    <glyph glyph-name="k" unicode="k" horiz-adv-x="498" 
d="M403 0l-220 237l-48 -51v-186h-62v735h62v-481l271 275h81l-259 -253l261 -276h-86z" />
    <glyph glyph-name="kcommaaccent" unicode="&#x137;" horiz-adv-x="498" 
d="M489 0h-86l-220 237l-48 -51v-186h-62v735h62v-481l271 275h81l-259 -253zM233 -51h52v-9l-55 -127h-46z" />
    <glyph glyph-name="l" unicode="l" horiz-adv-x="219" 
d="M131 735v-595c0 -23 0 -41 1 -57c2 -34 17 -43 62 -38v-46c-16 -3 -33 -3 -49 -3c-41 0 -72 14 -75 71c-1 18 -1 39 -1 71v597h62z" />
    <glyph glyph-name="lacute" unicode="&#x13a;" horiz-adv-x="219" 
d="M116 785h-42l61 110h60zM131 735v-595c0 -23 0 -41 1 -57c2 -34 17 -43 62 -38v-46c-16 -3 -33 -3 -49 -3c-41 0 -72 14 -75 71c-1 18 -1 39 -1 71v597h62z" />
    <glyph glyph-name="lcaron" unicode="&#x13e;" horiz-adv-x="219" 
d="M131 735v-595c0 -23 0 -41 1 -57c2 -34 17 -43 62 -38v-46c-16 -3 -33 -3 -49 -3c-41 0 -72 14 -75 71c-1 18 -1 39 -1 71v597h62z" />
    <glyph glyph-name="lcommaaccent" unicode="&#x13c;" horiz-adv-x="219" 
d="M131 735v-595c0 -23 0 -41 1 -57c2 -34 17 -43 62 -38v-46c-16 -3 -33 -3 -49 -3c-41 0 -72 14 -75 71c-1 18 -1 39 -1 71v597h62zM147 -60l-55 -127h-46l49 136h52v-9z" />
    <glyph glyph-name="ldot" unicode="&#x140;" horiz-adv-x="286" 
d="M131 735v-595c0 -23 0 -41 1 -57c2 -34 17 -43 62 -38v-46c-16 -3 -33 -3 -49 -3c-41 0 -72 14 -75 71c-1 18 -1 39 -1 71v597h62zM235 442c23 0 41 -18 41 -42c0 -23 -18 -42 -41 -42c-24 0 -42 19 -42 42c0 24 18 42 42 42z" />
    <glyph glyph-name="lslash" unicode="&#x142;" horiz-adv-x="253" 
d="M156 83c2 -34 17 -43 62 -38v-46c-16 -3 -33 -3 -49 -3c-41 0 -72 14 -75 71c-1 18 -1 39 -1 71v139l-62 -39v52l62 39v406h62v-367l62 39v-52l-62 -39v-176c0 -23 0 -41 1 -57z" />
    <glyph glyph-name="m" unicode="m" horiz-adv-x="838" 
d="M764 401c4 -27 5 -46 5 -89v-312h-62v284c0 43 -1 70 -4 97c-9 71 -48 112 -118 112c-75 0 -133 -59 -133 -216v-277h-62v284c0 43 -1 70 -4 97c-9 71 -48 112 -118 112c-75 0 -133 -59 -133 -216v-277h-62v529h62v-91l30 59c31 32 72 46 122 46c84 0 136 -45 154 -113
l41 67c30 32 72 46 122 46c95 0 148 -58 160 -142z" />
    <glyph glyph-name="n" unicode="n" horiz-adv-x="569" 
d="M498 385c2 -27 2 -46 2 -89v-296h-62v289c0 30 0 53 -2 80c-7 72 -47 123 -136 123c-88 0 -165 -64 -165 -229v-263h-62v529h62v-102l28 57c43 43 90 59 149 59c112 0 176 -61 186 -158z" />
    <glyph glyph-name="nacute" unicode="&#x144;" horiz-adv-x="569" 
d="M305 580h-42l61 110h60zM498 385c2 -27 2 -46 2 -89v-296h-62v289c0 30 0 53 -2 80c-7 72 -47 123 -136 123c-88 0 -165 -64 -165 -229v-263h-62v529h62v-102l28 57c43 43 90 59 149 59c112 0 176 -61 186 -158z" />
    <glyph glyph-name="ncaron" unicode="&#x148;" horiz-adv-x="569" 
d="M267 580l-66 110h49l40 -75l41 75h48l-67 -110h-45zM498 385c2 -27 2 -46 2 -89v-296h-62v289c0 30 0 53 -2 80c-7 72 -47 123 -136 123c-88 0 -165 -64 -165 -229v-263h-62v529h62v-102l28 57c43 43 90 59 149 59c112 0 176 -61 186 -158z" />
    <glyph glyph-name="ncommaaccent" unicode="&#x146;" horiz-adv-x="569" 
d="M498 385c2 -27 2 -46 2 -89v-296h-62v289c0 30 0 53 -2 80c-7 72 -47 123 -136 123c-88 0 -165 -64 -165 -229v-263h-62v529h62v-102l28 57c43 43 90 59 149 59c112 0 176 -61 186 -158zM260 -51h52v-9l-55 -127h-46z" />
    <glyph glyph-name="eng" unicode="&#x14b;" horiz-adv-x="569" 
d="M498 385c2 -27 2 -46 2 -89v-350c0 -18 0 -27 -1 -41c-6 -89 -61 -115 -155 -115v52c59 0 89 14 93 66c1 11 1 21 1 33v348c0 30 0 53 -2 80c-7 72 -47 123 -136 123c-88 0 -165 -64 -165 -229v-263h-62v529h62v-102l28 57c43 43 90 59 149 59c112 0 176 -61 186 -158z
" />
    <glyph glyph-name="ntilde" unicode="&#xf1;" horiz-adv-x="569" 
d="M237 632c-10 0 -16 -6 -16 -21h-31c0 45 17 60 46 60c18 0 33 -4 60 -13c24 -8 36 -11 45 -11c10 0 16 5 16 20h31c0 -45 -17 -60 -46 -60c-18 0 -33 4 -60 13c-24 8 -36 12 -45 12zM498 385c2 -27 2 -46 2 -89v-296h-62v289c0 30 0 53 -2 80c-7 72 -47 123 -136 123
c-88 0 -165 -64 -165 -229v-263h-62v529h62v-102l28 57c43 43 90 59 149 59c112 0 176 -61 186 -158z" />
    <glyph glyph-name="o" unicode="o" horiz-adv-x="574" 
d="M287 543c168 0 257 -123 257 -279c0 -155 -89 -278 -257 -278s-257 123 -257 278c0 156 89 279 257 279zM287 35c110 0 189 85 189 229s-79 229 -189 229s-189 -85 -189 -229s79 -229 189 -229z" />
    <glyph glyph-name="oacute" unicode="&#xf3;" horiz-adv-x="574" 
d="M303 580h-42l61 110h60zM287 543c168 0 257 -123 257 -279c0 -155 -89 -278 -257 -278s-257 123 -257 278c0 156 89 279 257 279zM287 35c110 0 189 85 189 229s-79 229 -189 229s-189 -85 -189 -229s79 -229 189 -229z" />
    <glyph glyph-name="ocircumflex" unicode="&#xf4;" horiz-adv-x="574" 
d="M247 580h-48l66 110h45l67 -110h-49l-41 75zM287 543c168 0 257 -123 257 -279c0 -155 -89 -278 -257 -278s-257 123 -257 278c0 156 89 279 257 279zM287 35c110 0 189 85 189 229s-79 229 -189 229s-189 -85 -189 -229s79 -229 189 -229z" />
    <glyph glyph-name="odieresis" unicode="&#xf6;" horiz-adv-x="574" 
d="M226 594c-19 0 -36 17 -36 37c0 19 17 36 36 36c20 0 37 -17 37 -36c0 -20 -17 -37 -37 -37zM348 594c-20 0 -37 17 -37 37c0 19 17 36 37 36c19 0 36 -17 36 -36c0 -20 -17 -37 -36 -37zM287 543c168 0 257 -123 257 -279c0 -155 -89 -278 -257 -278s-257 123 -257 278
c0 156 89 279 257 279zM287 35c110 0 189 85 189 229s-79 229 -189 229s-189 -85 -189 -229s79 -229 189 -229z" />
    <glyph glyph-name="ograve" unicode="&#xf2;" horiz-adv-x="574" 
d="M271 580l-79 110h61l61 -110h-43zM287 543c168 0 257 -123 257 -279c0 -155 -89 -278 -257 -278s-257 123 -257 278c0 156 89 279 257 279zM287 35c110 0 189 85 189 229s-79 229 -189 229s-189 -85 -189 -229s79 -229 189 -229z" />
    <glyph glyph-name="ohungarumlaut" unicode="&#x151;" horiz-adv-x="574" 
d="M249 580h-42l60 110h61zM321 580l60 110h61l-79 -110h-42zM287 543c168 0 257 -123 257 -279c0 -155 -89 -278 -257 -278s-257 123 -257 278c0 156 89 279 257 279zM287 35c110 0 189 85 189 229s-79 229 -189 229s-189 -85 -189 -229s79 -229 189 -229z" />
    <glyph glyph-name="omacron" unicode="&#x14d;" horiz-adv-x="574" 
d="M388 610h-202v40h202v-40zM287 543c168 0 257 -123 257 -279c0 -155 -89 -278 -257 -278s-257 123 -257 278c0 156 89 279 257 279zM287 35c110 0 189 85 189 229s-79 229 -189 229s-189 -85 -189 -229s79 -229 189 -229z" />
    <glyph glyph-name="oslash" unicode="&#xf8;" horiz-adv-x="610" 
d="M584 512l-75 -75c31 -47 47 -107 47 -173c0 -155 -89 -278 -257 -278c-75 0 -134 24 -176 65l-66 -66l-31 31l68 68c-34 48 -52 111 -52 180c0 156 89 279 257 279c78 0 140 -27 183 -71l71 71zM109 264c0 -53 11 -99 30 -135l299 299c-34 42 -82 65 -139 65
c-110 0 -190 -85 -190 -229zM488 264c0 49 -9 92 -26 126l-297 -297c34 -38 80 -58 134 -58c109 0 189 85 189 229z" />
    <glyph glyph-name="otilde" unicode="&#xf5;" horiz-adv-x="574" 
d="M235 632c-10 0 -16 -6 -16 -21h-31c0 45 17 60 46 60c18 0 33 -4 60 -13c24 -8 36 -11 45 -11c10 0 16 5 16 20h31c0 -45 -17 -60 -46 -60c-18 0 -33 4 -60 13c-24 8 -36 12 -45 12zM287 543c168 0 257 -123 257 -279c0 -155 -89 -278 -257 -278s-257 123 -257 278
c0 156 89 279 257 279zM287 35c110 0 189 85 189 229s-79 229 -189 229s-189 -85 -189 -229s79 -229 189 -229z" />
    <glyph glyph-name="oe" unicode="&#x153;" horiz-adv-x="985" 
d="M946 279c0 -7 0 -17 -1 -33h-400c6 -151 85 -211 170 -211c74 0 140 45 159 132h65c-25 -123 -122 -181 -227 -181c-88 0 -166 44 -205 147c-38 -96 -114 -147 -220 -147c-168 0 -257 123 -257 278c0 156 89 279 257 279c108 0 186 -51 224 -149c39 100 120 149 211 149
c148 0 224 -118 224 -264zM287 35c110 0 189 85 189 229s-79 229 -189 229s-189 -85 -189 -229s79 -229 189 -229zM545 295h338c-7 137 -75 198 -163 198c-89 0 -167 -65 -175 -198z" />
    <glyph glyph-name="p" unicode="p" horiz-adv-x="586" 
d="M320 543c148 0 236 -115 236 -272c0 -192 -118 -285 -252 -285c-52 0 -103 16 -136 47l-33 57v-286h-62v728h62v-101l35 58c37 36 89 54 150 54zM304 35c106 0 184 85 184 228c0 127 -61 230 -177 230c-94 0 -176 -56 -176 -216v-40c0 -151 91 -202 169 -202z" />
    <glyph glyph-name="thorn" unicode="&#xfe;" horiz-adv-x="586" 
d="M320 543c148 0 236 -115 236 -272c0 -192 -118 -285 -252 -285c-52 0 -103 16 -136 47l-33 57v-286h-62v931h62v-304l35 58c37 36 89 54 150 54zM304 35c106 0 184 85 184 228c0 127 -61 230 -177 230c-94 0 -176 -56 -176 -216v-40c0 -151 91 -202 169 -202z" />
    <glyph glyph-name="q" unicode="q" horiz-adv-x="589" 
d="M513 532v-728h-62v294l-35 -58c-37 -37 -89 -54 -150 -54c-148 0 -236 115 -236 272c0 192 118 285 252 285c52 0 103 -16 136 -48l33 -57v94h62zM275 35c94 0 176 57 176 217v40c0 150 -91 201 -169 201c-106 0 -184 -84 -184 -227c0 -127 61 -231 177 -231z" />
    <glyph glyph-name="r" unicode="r" horiz-adv-x="303" 
d="M264 541c11 0 22 -1 31 -4v-49c-92 7 -160 -50 -160 -191v-297h-62v529h62v-96l38 68c24 25 57 40 91 40z" />
    <glyph glyph-name="racute" unicode="&#x155;" horiz-adv-x="303" 
d="M179 580h-42l61 110h60zM264 541c11 0 22 -1 31 -4v-49c-92 7 -160 -50 -160 -191v-297h-62v529h62v-96l38 68c24 25 57 40 91 40z" />
    <glyph glyph-name="rcaron" unicode="&#x159;" horiz-adv-x="303" 
d="M141 580l-66 110h49l40 -75l41 75h48l-67 -110h-45zM264 541c11 0 22 -1 31 -4v-49c-92 7 -160 -50 -160 -191v-297h-62v529h62v-96l38 68c24 25 57 40 91 40z" />
    <glyph glyph-name="rcommaaccent" unicode="&#x157;" horiz-adv-x="303" 
d="M264 541c11 0 22 -1 31 -4v-49c-92 7 -160 -50 -160 -191v-297h-62v529h62v-96l38 68c24 25 57 40 91 40zM80 -51h52v-9l-55 -127h-46z" />
    <glyph glyph-name="s" unicode="s" horiz-adv-x="450" 
d="M223 543c115 0 177 -69 189 -162h-65c-15 73 -58 112 -129 112c-64 0 -107 -36 -107 -94c0 -61 50 -85 126 -104c122 -30 180 -74 180 -163c0 -94 -80 -146 -189 -146c-105 0 -188 50 -203 170h64c15 -90 72 -121 143 -121c67 0 122 31 122 92c0 59 -38 88 -141 113
c-91 24 -166 61 -166 152s72 151 176 151z" />
    <glyph glyph-name="sacute" unicode="&#x15b;" horiz-adv-x="450" 
d="M241 580h-42l61 110h60zM223 543c115 0 177 -69 189 -162h-65c-15 73 -58 112 -129 112c-64 0 -107 -36 -107 -94c0 -61 50 -85 126 -104c122 -30 180 -74 180 -163c0 -94 -80 -146 -189 -146c-105 0 -188 50 -203 170h64c15 -90 72 -121 143 -121c67 0 122 31 122 92
c0 59 -38 88 -141 113c-91 24 -166 61 -166 152s72 151 176 151z" />
    <glyph glyph-name="scaron" unicode="&#x161;" horiz-adv-x="450" 
d="M203 580l-66 110h49l40 -75l41 75h48l-67 -110h-45zM237 295c122 -30 180 -74 180 -163c0 -94 -80 -146 -189 -146c-105 0 -188 50 -203 170h64c15 -90 72 -121 143 -121c67 0 122 31 122 92c0 59 -38 88 -141 113c-91 24 -166 61 -166 152s72 151 176 151
c115 0 177 -69 189 -162h-65c-15 73 -58 112 -129 112c-64 0 -107 -36 -107 -94c0 -61 50 -85 126 -104z" />
    <glyph glyph-name="scedilla" unicode="&#x15f;" horiz-adv-x="450" 
d="M417 132c0 -87 -69 -139 -167 -145l-17 -31c53 -6 84 -33 84 -81c0 -57 -51 -85 -115 -85c-20 0 -37 3 -51 9v36c15 -8 31 -11 53 -11c42 0 68 18 68 50c0 36 -28 56 -97 51l33 62c-96 6 -169 57 -183 169h64c15 -90 72 -121 143 -121c67 0 122 31 122 92
c0 59 -38 88 -141 113c-91 24 -166 61 -166 152s72 151 176 151c115 0 177 -69 189 -162h-65c-15 73 -58 112 -129 112c-64 0 -107 -36 -107 -94c0 -61 50 -85 126 -104c122 -30 180 -74 180 -163z" />
    <glyph glyph-name="scommaaccent" unicode="&#x219;" horiz-adv-x="450" 
d="M223 543c115 0 177 -69 189 -162h-65c-15 73 -58 112 -129 112c-64 0 -107 -36 -107 -94c0 -61 50 -85 126 -104c122 -30 180 -74 180 -163c0 -94 -80 -146 -189 -146c-105 0 -188 50 -203 170h64c15 -90 72 -121 143 -121c67 0 122 31 122 92c0 59 -38 88 -141 113
c-91 24 -166 61 -166 152s72 151 176 151zM262 -60l-55 -127h-46l49 136h52v-9z" />
    <glyph glyph-name="germandbls" unicode="&#xdf;" horiz-adv-x="580" 
d="M294 754c121 0 205 -66 205 -171c0 -32 -8 -66 -32 -103c-53 -27 -82 -51 -82 -84c0 -36 17 -60 63 -98c61 -52 90 -94 90 -160c0 -89 -77 -142 -183 -142c-33 0 -63 2 -102 10v52c42 -10 73 -13 99 -13c76 0 117 37 117 97c0 37 -13 67 -72 120c-61 54 -81 82 -81 134
c0 49 30 83 94 115c15 24 20 46 20 71c0 76 -53 122 -139 122c-83 0 -147 -55 -154 -158c-1 -14 -2 -33 -2 -56v-490h-62v484c0 20 1 46 2 64c8 137 102 206 219 206z" />
    <glyph glyph-name="t" unicode="t" horiz-adv-x="284" 
d="M153 477v-332c0 -22 0 -33 1 -47c4 -51 26 -64 97 -55v-46c-21 -4 -43 -5 -64 -5c-59 0 -90 26 -95 84c-1 18 -1 38 -1 68v333h-68v48h68v117h62v-117h101v-48h-101z" />
    <glyph glyph-name="tbar" unicode="&#x167;" horiz-adv-x="284" 
d="M153 477v-128h75v-40h-75v-164c0 -22 0 -33 1 -47c4 -51 26 -64 97 -55v-46c-21 -4 -43 -5 -64 -5c-59 0 -90 26 -95 84c-1 18 -1 38 -1 68v165h-65v40h65v128h-68v48h68v117h62v-117h101v-48h-101z" />
    <glyph glyph-name="tcaron" unicode="&#x165;" horiz-adv-x="272" 
d="M298 735v-10l-55 -126h-46l49 136h52zM153 525h101v-48h-101v-332c0 -22 0 -33 1 -47c4 -51 26 -64 97 -55v-46c-21 -4 -43 -5 -64 -5c-59 0 -90 26 -95 84c-1 18 -1 38 -1 68v333h-68v48h68v117h62v-117z" />
    <glyph glyph-name="tcedilla" unicode="&#x163;" horiz-adv-x="284" 
d="M153 477v-332c0 -22 0 -33 1 -47c4 -51 26 -64 97 -55v-46c-21 -4 -43 -5 -64 -5l-20 -36c53 -6 84 -33 84 -81c0 -57 -51 -85 -115 -85c-20 0 -37 3 -51 9v36c15 -8 31 -11 53 -11c42 0 68 18 68 50c0 36 -28 56 -97 51l38 72c-33 10 -51 36 -55 79c-1 18 -1 38 -1 68
v333h-68v48h68v117h62v-117h101v-48h-101z" />
    <glyph glyph-name="uni021B" unicode="&#x21b;" horiz-adv-x="284" 
d="M153 477v-332c0 -22 0 -33 1 -47c4 -51 26 -64 97 -55v-46c-21 -4 -43 -5 -64 -5c-59 0 -90 26 -95 84c-1 18 -1 38 -1 68v333h-68v48h68v117h62v-117h101v-48h-101zM144 -51h52v-9l-55 -127h-46z" />
    <glyph glyph-name="u" unicode="u" horiz-adv-x="567" 
d="M492 529v-529h-62v102l-29 -59c-42 -41 -90 -57 -148 -57c-108 0 -172 61 -184 145c-3 27 -4 46 -4 89v309h62v-295c0 -25 1 -52 4 -79c8 -70 54 -119 136 -119c88 0 163 64 163 230v263h62z" />
    <glyph glyph-name="uacute" unicode="&#xfa;" horiz-adv-x="567" 
d="M294 580h-42l61 110h60zM492 529v-529h-62v102l-29 -59c-42 -41 -90 -57 -148 -57c-108 0 -172 61 -184 145c-3 27 -4 46 -4 89v309h62v-295c0 -25 1 -52 4 -79c8 -70 54 -119 136 -119c88 0 163 64 163 230v263h62z" />
    <glyph glyph-name="ucircumflex" unicode="&#xfb;" horiz-adv-x="567" 
d="M238 580h-48l66 110h45l67 -110h-49l-41 75zM492 529v-529h-62v102l-29 -59c-42 -41 -90 -57 -148 -57c-108 0 -172 61 -184 145c-3 27 -4 46 -4 89v309h62v-295c0 -25 1 -52 4 -79c8 -70 54 -119 136 -119c88 0 163 64 163 230v263h62z" />
    <glyph glyph-name="udieresis" unicode="&#xfc;" horiz-adv-x="567" 
d="M217 594c-19 0 -36 17 -36 37c0 19 17 36 36 36c20 0 37 -17 37 -36c0 -20 -17 -37 -37 -37zM339 594c-20 0 -37 17 -37 37c0 19 17 36 37 36c19 0 36 -17 36 -36c0 -20 -17 -37 -36 -37zM492 529v-529h-62v102l-29 -59c-42 -41 -90 -57 -148 -57
c-108 0 -172 61 -184 145c-3 27 -4 46 -4 89v309h62v-295c0 -25 1 -52 4 -79c8 -70 54 -119 136 -119c88 0 163 64 163 230v263h62z" />
    <glyph glyph-name="ugrave" unicode="&#xf9;" horiz-adv-x="567" 
d="M256 580l-79 110h61l61 -110h-43zM492 529v-529h-62v102l-29 -59c-42 -41 -90 -57 -148 -57c-108 0 -172 61 -184 145c-3 27 -4 46 -4 89v309h62v-295c0 -25 1 -52 4 -79c8 -70 54 -119 136 -119c88 0 163 64 163 230v263h62z" />
    <glyph glyph-name="uhungarumlaut" unicode="&#x171;" horiz-adv-x="567" 
d="M240 580h-42l60 110h61zM312 580l60 110h61l-79 -110h-42zM492 529v-529h-62v102l-29 -59c-42 -41 -90 -57 -148 -57c-108 0 -172 61 -184 145c-3 27 -4 46 -4 89v309h62v-295c0 -25 1 -52 4 -79c8 -70 54 -119 136 -119c88 0 163 64 163 230v263h62z" />
    <glyph glyph-name="umacron" unicode="&#x16b;" horiz-adv-x="567" 
d="M379 610h-202v40h202v-40zM492 529v-529h-62v102l-29 -59c-42 -41 -90 -57 -148 -57c-108 0 -172 61 -184 145c-3 27 -4 46 -4 89v309h62v-295c0 -25 1 -52 4 -79c8 -70 54 -119 136 -119c88 0 163 64 163 230v263h62z" />
    <glyph glyph-name="uogonek" unicode="&#x173;" horiz-adv-x="567" 
d="M492 529v-529h-18c-59 -13 -104 -67 -104 -131c0 -37 16 -51 45 -51c21 0 39 7 59 24v-39c-23 -18 -50 -26 -82 -26c-46 0 -82 19 -82 79c0 75 54 133 120 156v90l-29 -59c-42 -41 -90 -57 -148 -57c-108 0 -172 61 -184 145c-3 27 -4 46 -4 89v309h62v-295
c0 -25 1 -52 4 -79c8 -70 54 -119 136 -119c88 0 163 64 163 230v263h62z" />
    <glyph glyph-name="uring" unicode="&#x16f;" horiz-adv-x="567" 
d="M278 568c-46 0 -80 31 -80 75c0 45 34 76 80 76s80 -31 80 -76c0 -44 -34 -75 -80 -75zM278 689c-24 0 -40 -19 -40 -46s16 -45 40 -45s40 18 40 45s-16 46 -40 46zM492 529v-529h-62v102l-29 -59c-42 -41 -90 -57 -148 -57c-108 0 -172 61 -184 145c-3 27 -4 46 -4 89
v309h62v-295c0 -25 1 -52 4 -79c8 -70 54 -119 136 -119c88 0 163 64 163 230v263h62z" />
    <glyph glyph-name="v" unicode="v" horiz-adv-x="497" 
d="M490 529l-204 -529h-77l-203 529h68l176 -483l174 483h66z" />
    <glyph glyph-name="w" unicode="w" horiz-adv-x="759" 
d="M752 529l-167 -529h-75l-130 466l-130 -466h-76l-168 529h71l136 -472l129 471h79l130 -466l135 467h66z" />
    <glyph glyph-name="wacute" unicode="&#x1e83;" horiz-adv-x="759" 
d="M397 580h-42l61 110h60zM752 529l-167 -529h-75l-130 466l-130 -466h-76l-168 529h71l136 -472l129 471h79l130 -466l135 467h66z" />
    <glyph glyph-name="wcircumflex" unicode="&#x175;" horiz-adv-x="759" 
d="M341 580h-48l66 110h45l67 -110h-49l-41 75zM752 529l-167 -529h-75l-130 466l-130 -466h-76l-168 529h71l136 -472l129 471h79l130 -466l135 467h66z" />
    <glyph glyph-name="wdieresis" unicode="&#x1e85;" horiz-adv-x="759" 
d="M320 594c-19 0 -36 17 -36 37c0 19 17 36 36 36c20 0 37 -17 37 -36c0 -20 -17 -37 -37 -37zM442 594c-20 0 -37 17 -37 37c0 19 17 36 37 36c19 0 36 -17 36 -36c0 -20 -17 -37 -36 -37zM752 529l-167 -529h-75l-130 466l-130 -466h-76l-168 529h71l136 -472l129 471h79
l130 -466l135 467h66z" />
    <glyph glyph-name="wgrave" unicode="&#x1e81;" horiz-adv-x="759" 
d="M364 580l-79 110h61l61 -110h-43zM752 529l-167 -529h-75l-130 466l-130 -466h-76l-168 529h71l136 -472l129 471h79l130 -466l135 467h66z" />
    <glyph glyph-name="x" unicode="x" horiz-adv-x="458" 
d="M258 268l187 -268h-73l-151 227l-152 -227h-72l189 267l-181 262h73l146 -221l148 221h72z" />
    <glyph glyph-name="y" unicode="y" horiz-adv-x="492" 
d="M485 529l-212 -557c-54 -140 -105 -182 -180 -182c-18 0 -29 0 -41 3v51c13 -2 23 -2 34 -2c48 0 84 25 118 110l11 28l-209 549h70l171 -483l170 483h68z" />
    <glyph glyph-name="yacute" unicode="&#xfd;" horiz-adv-x="492" 
d="M263 580h-42l61 110h60zM485 529l-212 -557c-54 -140 -105 -182 -180 -182c-18 0 -29 0 -41 3v51c13 -2 23 -2 34 -2c48 0 84 25 118 110l11 28l-209 549h70l171 -483l170 483h68z" />
    <glyph glyph-name="ycircumflex" unicode="&#x177;" horiz-adv-x="492" 
d="M207 580h-48l66 110h45l67 -110h-49l-41 75zM485 529l-212 -557c-54 -140 -105 -182 -180 -182c-18 0 -29 0 -41 3v51c13 -2 23 -2 34 -2c48 0 84 25 118 110l11 28l-209 549h70l171 -483l170 483h68z" />
    <glyph glyph-name="ydieresis" unicode="&#xff;" horiz-adv-x="492" 
d="M186 594c-19 0 -36 17 -36 37c0 19 17 36 36 36c20 0 37 -17 37 -36c0 -20 -17 -37 -37 -37zM308 594c-20 0 -37 17 -37 37c0 19 17 36 37 36c19 0 36 -17 36 -36c0 -20 -17 -37 -36 -37zM485 529l-212 -557c-54 -140 -105 -182 -180 -182c-18 0 -29 0 -41 3v51
c13 -2 23 -2 34 -2c48 0 84 25 118 110l11 28l-209 549h70l171 -483l170 483h68z" />
    <glyph glyph-name="ygrave" unicode="&#x1ef3;" horiz-adv-x="492" 
d="M230 580l-79 110h61l61 -110h-43zM485 529l-212 -557c-54 -140 -105 -182 -180 -182c-18 0 -29 0 -41 3v51c13 -2 23 -2 34 -2c48 0 84 25 118 110l11 28l-209 549h70l171 -483l170 483h68z" />
    <glyph glyph-name="z" unicode="z" horiz-adv-x="455" 
d="M429 50v-50h-412v48l334 425h-310v50h384v-51l-333 -422h337z" />
    <glyph glyph-name="zacute" unicode="&#x17a;" horiz-adv-x="455" 
d="M243 580h-42l61 110h60zM429 50v-50h-412v48l334 425h-310v50h384v-51l-333 -422h337z" />
    <glyph glyph-name="zcaron" unicode="&#x17e;" horiz-adv-x="455" 
d="M205 580l-66 110h49l40 -75l41 75h48l-67 -110h-45zM429 50v-50h-412v48l334 425h-310v50h384v-51l-333 -422h337z" />
    <glyph glyph-name="zdotaccent" unicode="&#x17c;" horiz-adv-x="455" 
d="M227 601c-23 0 -42 19 -42 42c0 24 19 42 42 42c24 0 42 -18 42 -42c0 -23 -18 -42 -42 -42zM429 50v-50h-412v48l334 425h-310v50h384v-51l-333 -422h337z" />
    <glyph glyph-name="zero" unicode="0" 
d="M281 704c180 0 241 -155 241 -359s-61 -359 -241 -359c-181 0 -242 155 -242 359c0 205 61 359 242 359zM281 36c126 0 172 125 172 309s-46 309 -172 309s-173 -124 -173 -309c0 -184 47 -309 173 -309z" />
    <glyph glyph-name="one" unicode="1" 
d="M385 690v-690h-62v625l-190 -116v67l151 94c25 16 43 20 62 20h39z" />
    <glyph glyph-name="two" unicode="2" 
d="M144 52h363v-52h-454v37l245 246c101 101 140 154 140 226c0 79 -48 145 -141 145c-94 0 -149 -62 -160 -165l-1 -10h-62l1 10c14 137 100 215 229 215c136 0 203 -86 203 -189c0 -92 -54 -161 -171 -275z" />
    <glyph glyph-name="three" unicode="3" 
d="M372 363c90 -21 145 -79 145 -174c0 -127 -110 -203 -240 -203c-127 0 -216 64 -231 208l-1 10h62l1 -10c10 -101 77 -158 174 -158c95 0 166 55 166 150c0 84 -56 139 -181 139h-17v52h17c86 0 167 52 167 146c0 83 -59 131 -139 131c-84 0 -149 -52 -158 -150l-1 -10
h-62l1 10c12 125 98 200 227 200c126 0 201 -72 201 -174c0 -81 -54 -146 -131 -167z" />
    <glyph glyph-name="four" unicode="4" 
d="M532 184h-92v-184h-62v184h-349v33l351 473h60v-455h92v-51zM378 235v372c-19 -29 -41 -63 -69 -102l-201 -270h270z" />
    <glyph glyph-name="five" unicode="5" 
d="M295 446c145 0 221 -98 221 -227c0 -148 -112 -233 -238 -233c-122 0 -209 63 -223 195l-1 10h62l2 -10c14 -86 66 -145 160 -145c93 0 169 62 169 179c0 111 -63 181 -161 181c-71 0 -124 -30 -160 -105h-59l54 398h376v-52h-326l-40 -274l41 47c36 24 75 36 123 36z
" />
    <glyph glyph-name="six" unicode="6" 
d="M292 463c144 0 226 -102 226 -236c0 -140 -100 -241 -239 -241c-147 0 -236 94 -236 321c0 281 112 397 258 397c119 0 192 -71 207 -182l1 -10h-66l-2 10c-18 88 -65 132 -145 132c-99 0 -180 -72 -187 -314l32 57c40 44 90 66 151 66zM280 36c100 0 169 79 169 185
c0 107 -57 192 -167 192c-91 0 -166 -69 -166 -184c0 -108 62 -193 164 -193z" />
    <glyph glyph-name="seven" unicode="7" 
d="M523 690v-29l-352 -661h-67l341 638h-397v52h475z" />
    <glyph glyph-name="eight" unicode="8" 
d="M382 362c81 -22 137 -89 137 -176c0 -140 -117 -201 -238 -201c-131 0 -239 61 -239 201c0 86 61 152 143 176c-66 23 -111 81 -111 159c0 108 81 183 213 183c135 0 214 -75 214 -183c0 -79 -50 -137 -119 -159zM141 519c0 -85 60 -136 146 -136s147 51 147 136
c0 77 -52 135 -147 135c-94 0 -146 -58 -146 -135zM283 35c97 0 167 55 167 149c0 82 -51 149 -167 149s-172 -67 -172 -149c0 -94 71 -149 172 -149z" />
    <glyph glyph-name="nine" unicode="9" 
d="M282 704c147 0 236 -94 236 -321c0 -277 -112 -397 -257 -397c-119 0 -192 71 -207 182l-2 10h66l2 -10c18 -88 65 -132 145 -132c100 0 181 76 188 314l-33 -57c-39 -44 -90 -66 -151 -66c-143 0 -225 102 -225 236c0 140 100 241 238 241zM280 277c90 0 166 70 166 185
c0 107 -62 192 -164 192c-101 0 -169 -78 -169 -184c0 -108 56 -193 167 -193z" />
    <glyph glyph-name="fraction" unicode="&#x2044;" horiz-adv-x="174" 
d="M-105 0h-64l448 690h64z" />
    <glyph glyph-name="asterisk" unicode="*" horiz-adv-x="549" 
d="M291 290l156 60l15 -46l-159 -45l113 -142l-39 -28l-103 153l-102 -153l-39 28l113 142l-159 45l14 46l157 -60l-7 185h47z" />
    <glyph glyph-name="backslash" unicode="\" horiz-adv-x="288" 
d="M293 -30h-47l-251 750h47z" />
    <glyph glyph-name="bullet" unicode="&#x2022;" horiz-adv-x="293" 
d="M146 387c47 0 82 -35 82 -82s-35 -82 -82 -82c-46 0 -81 35 -81 82s35 82 81 82z" />
    <glyph glyph-name="colon" unicode=":" horiz-adv-x="194" 
d="M86 543c27 0 47 -21 47 -48s-20 -47 -47 -47c-28 0 -48 20 -48 47s20 48 48 48zM86 81c27 0 47 -20 47 -47c0 -28 -20 -48 -47 -48c-28 0 -48 20 -48 48c0 27 20 47 48 47z" />
    <glyph glyph-name="comma" unicode="," horiz-adv-x="194" 
d="M113 63l-75 -182h-58l66 191h67v-9z" />
    <glyph glyph-name="ellipsis" unicode="&#x2026;" horiz-adv-x="519" 
d="M86 81c27 0 47 -20 47 -47c0 -28 -20 -48 -47 -48c-28 0 -48 20 -48 48c0 27 20 47 48 47zM248 81c27 0 48 -20 48 -47c0 -28 -21 -48 -48 -48s-47 20 -47 48c0 27 20 47 47 47zM411 81c27 0 47 -20 47 -47c0 -28 -20 -48 -47 -48c-28 0 -48 20 -48 48c0 27 20 47 48 47z
" />
    <glyph glyph-name="exclam" unicode="!" horiz-adv-x="227" 
d="M142 154h-57l-9 536h75zM114 81c27 0 47 -20 47 -47c0 -28 -20 -48 -47 -48c-28 0 -48 20 -48 48c0 27 20 47 48 47z" />
    <glyph glyph-name="exclamdown" unicode="&#xa1;" horiz-adv-x="227" 
d="M114 449c-28 0 -48 20 -48 48c0 27 20 47 48 47c27 0 47 -20 47 -47c0 -28 -20 -48 -47 -48zM85 376h57l9 -536h-75z" />
    <glyph glyph-name="numbersign" unicode="#" 
d="M390 418l-31 -146h108v-43h-117l-49 -229h-45l49 229h-98l-49 -229h-44l49 229h-99v43h108l31 146h-109v43h118l49 229h44l-49 -229h98l49 229h45l-49 -229h98v-43h-107zM345 418h-98l-31 -146h98z" />
    <glyph glyph-name="period" unicode="." horiz-adv-x="194" 
d="M86 81c27 0 47 -20 47 -47c0 -28 -20 -48 -47 -48c-28 0 -48 20 -48 48c0 27 20 47 48 47z" />
    <glyph glyph-name="periodcentered" unicode="&#xb7;" horiz-adv-x="177" 
d="M89 356c29 0 51 -22 51 -51s-22 -51 -51 -51c-30 0 -52 22 -52 51s22 51 52 51z" />
    <glyph glyph-name="question" unicode="?" horiz-adv-x="508" 
d="M260 704c130 0 201 -80 201 -181c0 -70 -35 -133 -100 -198c-72 -70 -87 -103 -89 -171h-62c5 78 21 115 92 191c66 72 90 116 90 178c0 80 -52 131 -134 131c-90 0 -146 -59 -153 -160h-64c4 127 92 210 219 210zM241 81c28 0 48 -20 48 -47c0 -28 -20 -48 -48 -48
c-27 0 -47 20 -47 48c0 27 20 47 47 47z" />
    <glyph glyph-name="questiondown" unicode="&#xbf;" horiz-adv-x="484" 
d="M288 447c-27 0 -47 20 -47 48c0 27 20 47 47 47s48 -20 48 -47c0 -28 -21 -48 -48 -48zM270 -176c-131 0 -202 80 -202 181c0 71 35 134 101 198c72 71 87 103 89 171h61c-4 -78 -20 -115 -91 -190c-66 -72 -91 -117 -91 -179c0 -80 52 -131 135 -131
c89 0 146 60 152 160h65c-4 -126 -92 -210 -219 -210z" />
    <glyph glyph-name="quotedbl" unicode="&#x22;" horiz-adv-x="268" 
d="M119 487h-50l-7 248h64zM233 487h-49l-8 248h65z" />
    <glyph glyph-name="quotesingle" unicode="'" horiz-adv-x="139" 
d="M92 487h-50l-7 248h64z" />
    <glyph glyph-name="semicolon" unicode=";" horiz-adv-x="194" 
d="M86 543c27 0 47 -21 47 -48s-20 -47 -47 -47c-28 0 -48 20 -48 47s20 48 48 48zM114 68l-76 -187h-58l66 197h67z" />
    <glyph glyph-name="slash" unicode="/" horiz-adv-x="288" 
d="M42 -30h-47l251 750h47z" />
    <glyph glyph-name="underscore" unicode="_" horiz-adv-x="500" 
d="M450 -84h-400v43h400v-43z" />
    <glyph glyph-name="braceleft" unicode="{" horiz-adv-x="300" 
d="M275 737h-14c-60 0 -88 -19 -88 -64c0 -23 3 -38 11 -98c9 -68 12 -94 12 -122c0 -53 -29 -95 -89 -102c59 -7 89 -51 89 -104c0 -28 -3 -53 -12 -122c-8 -60 -11 -75 -11 -98c0 -45 28 -64 88 -64h14v-43h-13c-82 0 -133 25 -133 108c0 21 2 40 11 107
c8 56 11 84 11 110c0 44 -22 77 -82 83v44c60 6 82 39 82 83c0 27 -3 54 -11 110c-9 67 -11 86 -11 107c0 83 51 108 133 108h13v-43z" />
    <glyph glyph-name="braceright" unicode="}" horiz-adv-x="300" 
d="M231 372v-44c-60 -6 -81 -39 -81 -83c0 -26 2 -54 10 -110c10 -67 12 -86 12 -107c0 -83 -52 -108 -134 -108h-13v43h14c61 0 88 19 88 64c0 23 -2 38 -10 98c-10 69 -13 94 -13 122c0 53 30 95 89 102c-59 7 -89 51 -89 104c0 28 3 54 13 122c8 60 10 75 10 98
c0 45 -27 64 -88 64h-14v43h13c82 0 134 -25 134 -108c0 -21 -2 -40 -12 -107c-8 -56 -10 -83 -10 -110c0 -44 21 -77 81 -83z" />
    <glyph glyph-name="bracketleft" unicode="[" horiz-adv-x="309" 
d="M270 780v-43h-115v-774h115v-43h-159v860h159z" />
    <glyph glyph-name="bracketright" unicode="]" horiz-adv-x="301" 
d="M190 -80h-159v43h115v774h-115v43h159v-860z" />
    <glyph glyph-name="parenleft" unicode="(" horiz-adv-x="307" 
d="M227 780h45c-74 -122 -116 -276 -116 -430s42 -308 116 -430h-45c-73 110 -119 272 -119 430s46 320 119 430z" />
    <glyph glyph-name="parenright" unicode=")" horiz-adv-x="307" 
d="M32 780h44c73 -110 119 -272 119 -430s-46 -320 -119 -430h-44c73 122 115 276 115 430s-42 308 -115 430z" />
    <glyph glyph-name="emdash" unicode="&#x2014;" horiz-adv-x="1000" 
d="M930 270h-860v43h860v-43z" />
    <glyph glyph-name="endash" unicode="&#x2013;" horiz-adv-x="500" 
d="M430 270h-360v43h360v-43z" />
    <glyph glyph-name="hyphen" unicode="-" horiz-adv-x="274" 
d="M242 261h-210v43h210v-43z" />
    <glyph glyph-name="guillemotleft" unicode="&#xab;" horiz-adv-x="536" 
d="M321 414l-137 -166l137 -166h-57l-137 166l137 166h57zM472 414l-137 -166l137 -166h-57l-137 166l137 166h57z" />
    <glyph glyph-name="guillemotright" unicode="&#xbb;" horiz-adv-x="536" 
d="M258 248l-137 -166h-56l137 166l-137 166h56zM409 248l-137 -166h-56l137 166l-137 166h56z" />
    <glyph glyph-name="guilsinglleft" unicode="&#x2039;" horiz-adv-x="385" 
d="M321 414l-137 -166l137 -166h-57l-137 166l137 166h57z" />
    <glyph glyph-name="guilsinglright" unicode="&#x203a;" horiz-adv-x="385" 
d="M258 248l-137 -166h-56l137 166l-137 166h56z" />
    <glyph glyph-name="quotedblbase" unicode="&#x201e;" horiz-adv-x="326" 
d="M113 63l-75 -182h-58l66 191h67v-9zM246 63l-76 -182h-58l66 191h67z" />
    <glyph glyph-name="quotedblleft" unicode="&#x201c;" horiz-adv-x="337" 
d="M39 495l86 240h56l-75 -248h-67v8zM179 495l86 240h56l-75 -248h-67v8z" />
    <glyph glyph-name="quotedblright" unicode="&#x201d;" horiz-adv-x="337" 
d="M158 727l-86 -240h-56l75 248h67v-8zM298 727l-86 -240h-56l75 248h67v-8z" />
    <glyph glyph-name="quoteleft" unicode="&#x2018;" horiz-adv-x="197" 
d="M39 495l87 240h55l-75 -248h-67v8z" />
    <glyph glyph-name="quoteright" unicode="&#x2019;" horiz-adv-x="197" 
d="M158 727l-86 -240h-56l75 248h67v-8z" />
    <glyph glyph-name="quotesinglbase" unicode="&#x201a;" horiz-adv-x="194" 
d="M113 63l-75 -182h-58l66 191h67v-9z" />
    <glyph glyph-name="space" unicode=" " horiz-adv-x="204" 
 />
    <glyph glyph-name="cent" unicode="&#xa2;" horiz-adv-x="549" 
d="M307 494v-458c67 8 119 52 135 129h65c-22 -108 -98 -169 -200 -178v-77h-44v77c-123 8 -216 100 -216 277c0 162 97 263 216 278v78h44v-76c114 -5 190 -78 205 -186h-65c-17 82 -65 130 -140 136zM115 270c0 -149 68 -222 148 -233v456c-78 -14 -148 -86 -148 -223z
" />
    <glyph glyph-name="currency" unicode="&#xa4;" 
d="M459 301c0 -42 -14 -80 -37 -111l59 -59l-31 -31l-59 58c-30 -23 -68 -37 -110 -37s-80 14 -110 37l-59 -58l-31 32l58 58c-23 30 -37 69 -37 111c0 43 14 81 37 112l-58 59l31 31l59 -59c31 24 68 37 110 37s79 -14 109 -37l60 59l31 -31l-59 -60c23 -30 37 -68 37 -111
zM281 165c75 0 130 58 130 136s-55 136 -130 136c-76 0 -131 -58 -131 -136s55 -136 131 -136z" />
    <glyph glyph-name="dollar" unicode="$" 
d="M508 171c0 -103 -80 -175 -198 -184v-77h-44v77c-119 6 -205 76 -213 197h65c11 -85 65 -138 148 -147v283c-108 30 -186 80 -186 196c0 110 80 177 186 187v77h44v-77c120 -7 182 -91 194 -192h-66c-9 82 -51 135 -128 142v-272c138 -43 198 -107 198 -210zM146 524
c0 -79 45 -113 120 -136v265c-69 -9 -120 -52 -120 -129zM310 312v-275c80 6 131 51 131 127c0 71 -38 118 -131 148z" />
    <glyph glyph-name="Euro" unicode="&#x20ac;" 
d="M446 268h-288c17 -163 91 -232 213 -232c54 0 100 12 144 40v-53c-49 -28 -98 -37 -149 -37c-159 0 -259 77 -278 282h-71l10 42h59l-1 32c0 12 0 24 1 36h-48l10 42h41c23 194 135 284 285 284c72 0 124 -19 163 -61l-32 -42c-35 37 -79 53 -133 53
c-104 0 -194 -62 -214 -234h324l-11 -42h-316l-1 -32c0 -12 0 -24 1 -36h300z" />
    <glyph glyph-name="sterling" unicode="&#xa3;" 
d="M502 52v-52h-439v46c80 21 127 81 127 156c0 46 -12 81 -36 128h-82v43h60c-22 44 -37 84 -37 135c0 117 89 196 203 196c131 0 194 -83 202 -196h-66c-10 96 -55 146 -138 146c-82 0 -132 -62 -132 -135c0 -53 12 -88 42 -146h223v-43h-203c20 -42 30 -80 30 -119
c0 -72 -32 -120 -95 -159h341z" />
    <glyph glyph-name="yen" unicode="&#xa5;" 
d="M341 351h141v-42h-165l-5 -9v-61h170v-43h-170v-196h-62v196h-171v43h171v59l-6 11h-165v42h140l-197 339h78l183 -336l182 336h73z" />
    <glyph glyph-name="approxequal" unicode="&#x2248;" 
d="M177 439c38 0 63 -12 114 -39c42 -23 66 -35 96 -35c37 0 58 16 82 54l33 -25c-31 -50 -66 -75 -119 -75c-37 0 -62 13 -113 40c-42 22 -66 34 -96 34c-36 0 -58 -16 -82 -54l-33 28c31 50 67 72 118 72zM177 272c38 0 63 -13 114 -40c42 -22 66 -34 96 -34
c37 0 58 16 82 54l33 -25c-31 -51 -66 -75 -119 -75c-37 0 -62 12 -113 39c-42 23 -66 35 -96 35c-36 0 -58 -16 -82 -54l-33 27c31 51 67 73 118 73z" />
    <glyph glyph-name="asciitilde" unicode="~" 
d="M449 354h43c0 -85 -35 -127 -101 -127c-39 0 -62 11 -121 43c-47 26 -74 39 -103 39c-41 0 -55 -31 -55 -84h-43c0 85 35 127 101 127c39 0 62 -11 121 -43c48 -26 74 -39 103 -39c41 0 55 31 55 84z" />
    <glyph glyph-name="divide" unicode="&#xf7;" 
d="M282 520c26 0 45 -19 45 -45c0 -25 -19 -45 -45 -45s-45 20 -45 45c0 26 19 45 45 45zM487 297h-413v43h413v-43zM282 204c26 0 45 -19 45 -45s-19 -45 -45 -45s-45 19 -45 45s19 45 45 45z" />
    <glyph glyph-name="emptyset" unicode="&#x2205;" horiz-adv-x="838" 
d="M784 689l-81 -81c57 -67 92 -155 92 -253c0 -213 -167 -382 -376 -382c-98 0 -186 37 -253 98l-81 -81l-31 31l82 82c-58 67 -93 155 -93 252c0 214 167 382 376 382c98 0 186 -37 253 -98l81 81zM91 355c0 -84 29 -161 77 -220l471 471c-58 54 -135 87 -220 87
c-182 0 -328 -150 -328 -338zM419 17c183 0 328 149 328 338c0 84 -29 161 -77 219l-471 -470c58 -54 135 -87 220 -87z" />
    <glyph glyph-name="equal" unicode="=" 
d="M491 391h-420v43h420v-43zM491 198h-420v43h420v-43z" />
    <glyph glyph-name="greater" unicode="&#x3e;" 
d="M465 290v-50l-401 -199v52l353 172l-353 171v53z" />
    <glyph glyph-name="greaterequal" unicode="&#x2265;" 
d="M478 321v-50l-412 -173v52l363 146l-363 144v53zM66 43h412v-43h-412v43z" />
    <glyph glyph-name="infinity" unicode="&#x221e;" horiz-adv-x="989" 
d="M720 544c158 0 239 -123 239 -279s-81 -279 -239 -279c-104 0 -183 59 -227 181c-45 -122 -115 -181 -224 -181c-158 0 -239 123 -239 279s81 279 239 279c104 0 183 -59 227 -179c44 119 115 179 224 179zM269 35c83 0 168 61 186 230c-28 169 -103 230 -186 230
c-93 0 -171 -86 -171 -230s78 -230 171 -230zM720 35c94 0 171 86 171 230s-77 230 -171 230c-83 0 -168 -61 -186 -230c28 -169 103 -230 186 -230z" />
    <glyph glyph-name="integral" unicode="&#x222b;" 
d="M323 754c27 0 49 -6 71 -24l-14 -40c-19 17 -35 21 -56 21c-41 0 -71 -42 -71 -131c0 -52 5 -104 46 -277c35 -154 48 -223 48 -289c0 -119 -54 -174 -117 -174c-28 0 -50 6 -72 24l15 40c18 -17 34 -21 55 -21c41 0 71 42 71 131c0 53 -5 104 -46 278
c-35 153 -48 222 -48 288c0 119 54 174 118 174z" />
    <glyph glyph-name="less" unicode="&#x3c;" 
d="M492 437l-353 -171l353 -172v-53l-401 199v50l401 199v-52z" />
    <glyph glyph-name="lessequal" unicode="&#x2264;" 
d="M496 442l-364 -147l364 -144v-53l-413 173v50l413 172v-51zM83 43h413v-43h-413v43z" />
    <glyph glyph-name="logicalnot" unicode="&#xac;" 
d="M457 210h-44v124h-318v43h362v-167z" />
    <glyph glyph-name="minus" unicode="&#x2212;" 
d="M487 297h-413v43h413v-43z" />
    <glyph glyph-name="multiply" unicode="&#xd7;" 
d="M312 314l143 -143l-31 -31l-143 143l-143 -143l-31 31l143 143l-143 143l31 31l143 -143l143 143l31 -31z" />
    <glyph glyph-name="notequal" unicode="&#x2260;" 
d="M349 391l-87 -150h229v-43h-254l-57 -97h-50l57 97h-116v43h141l87 150h-228v43h253l57 97h50l-57 -97h117v-43h-142z" />
    <glyph glyph-name="partialdiff" unicode="&#x2202;" 
d="M255 758c196 0 250 -198 250 -417c0 -246 -92 -355 -242 -355c-120 0 -217 87 -217 239c0 142 85 254 236 254c70 0 126 -32 154 -80c-7 167 -51 310 -185 310c-62 0 -101 -16 -145 -53l-28 39c53 45 105 63 177 63zM268 35c114 0 167 103 171 293
c-34 72 -90 102 -155 102c-110 0 -170 -83 -170 -202c0 -127 68 -193 154 -193z" />
    <glyph glyph-name="percent" unicode="%" horiz-adv-x="725" 
d="M193 702c86 0 140 -64 140 -159c0 -94 -54 -159 -140 -159s-141 65 -141 159c0 95 55 159 141 159zM171 0h-64l447 690h65zM193 656c-49 0 -79 -42 -79 -113c0 -70 30 -114 79 -114s79 44 79 114c0 71 -30 113 -79 113zM532 304c86 0 140 -64 140 -159
c0 -94 -54 -159 -140 -159s-141 65 -141 159c0 95 55 159 141 159zM532 259c-49 0 -79 -43 -79 -114c0 -70 30 -114 79 -114s79 44 79 114c0 71 -30 114 -79 114z" />
    <glyph glyph-name="perthousand" unicode="&#x2030;" horiz-adv-x="1050" 
d="M333 543c0 -94 -54 -159 -140 -159s-141 65 -141 159c0 95 55 159 141 159s140 -64 140 -159zM619 690l-448 -690h-64l447 690h65zM114 543c0 -70 30 -114 79 -114s79 44 79 114c0 71 -30 113 -79 113s-79 -42 -79 -113zM532 304c86 0 140 -64 140 -159
c0 -94 -54 -159 -140 -159s-141 65 -141 159c0 95 55 159 141 159zM858 304c86 0 140 -64 140 -159c0 -94 -54 -159 -140 -159c-87 0 -141 65 -141 159c0 95 54 159 141 159zM532 31c49 0 79 44 79 114c0 71 -30 114 -79 114s-79 -43 -79 -114c0 -70 30 -114 79 -114z
M858 31c49 0 79 44 79 114c0 71 -30 114 -79 114c-50 0 -79 -43 -79 -114c0 -70 29 -114 79 -114z" />
    <glyph glyph-name="plus" unicode="+" 
d="M487 295h-184v-209h-45v209h-184v42h184v212h45v-212h184v-42z" />
    <glyph glyph-name="plusminus" unicode="&#xb1;" 
d="M297 340h184v-43h-184v-191h-44v191h-184v43h184v189h44v-189zM481 0h-412v43h412v-43z" />
    <glyph glyph-name="product" unicode="&#x220f;" 
d="M526 638h-59v-748h-62v748h-248v-748h-62v748h-59v52h490v-52z" />
    <glyph glyph-name="radical" unicode="&#x221a;" 
d="M528 780l-216 -940h-58l-128 427h-67v43h101l122 -416l198 886h48z" />
    <glyph glyph-name="summation" unicode="&#x2211;" 
d="M521 -58v-52h-481v50l280 361l-250 339v50h445v-52h-373l250 -338l-281 -358h410z" />
    <glyph glyph-name="lozenge" unicode="&#x25ca;" horiz-adv-x="496" 
d="M440 345l-167 -345h-50l-167 345l167 345h50zM389 345l-141 299l-142 -299l142 -299z" />
    <glyph glyph-name="ampersand" unicode="&#x26;" horiz-adv-x="649" 
d="M621 374v-52h-102v-317c-57 -12 -125 -19 -183 -19c-161 0 -270 39 -270 181c0 93 67 164 170 182c-79 16 -138 69 -138 161c0 114 97 194 237 194c49 0 82 -3 120 -10v-51c-41 8 -74 11 -123 11c-99 0 -165 -54 -165 -141c0 -108 74 -134 150 -138c19 -1 40 -1 62 -1h78
v127h62v-127h102zM135 176c0 -105 70 -140 203 -140c41 0 80 3 119 10v276h-78c-22 0 -41 0 -61 -2c-115 -10 -183 -58 -183 -144z" />
    <glyph glyph-name="asciicircum" unicode="^" 
d="M430 215l-148 358l-148 -358h-53l174 401h53l174 -401h-52z" />
    <glyph glyph-name="at" unicode="@" horiz-adv-x="852" 
d="M621 465l-58 -243c-6 -27 -8 -41 -8 -53c0 -29 15 -50 54 -50c70 0 136 74 136 212c0 187 -122 289 -280 289c-170 0 -361 -137 -361 -375c0 -202 137 -305 294 -305c89 0 177 24 259 83l20 -38c-103 -69 -194 -89 -281 -89c-173 0 -339 113 -339 347
c0 264 211 421 412 421c192 0 324 -134 324 -330c0 -178 -102 -259 -197 -259c-52 0 -96 22 -102 81l-19 -39c-33 -35 -68 -50 -108 -50c-60 0 -134 36 -134 157c0 135 90 259 215 259c37 0 66 -12 83 -32l13 -51l17 65h60zM511 262l9 39c20 89 -15 133 -70 133
c-87 0 -149 -97 -149 -204c0 -81 34 -114 81 -114c57 0 108 56 129 146z" />
    <glyph glyph-name="bar" unicode="|" horiz-adv-x="250" 
d="M147 -200h-44v1000h44v-1000z" />
    <glyph glyph-name="brokenbar" unicode="&#xa6;" horiz-adv-x="250" 
d="M147 350h-44v340h44v-340zM147 -160h-44v340h44v-340z" />
    <glyph glyph-name="copyright" unicode="&#xa9;" horiz-adv-x="838" 
d="M419 737c211 0 376 -167 376 -382s-165 -382 -376 -382c-210 0 -375 167 -375 382s165 382 375 382zM419 693c-184 0 -328 -148 -328 -338s144 -337 328 -337s329 147 329 337s-145 338 -329 338zM424 578c100 0 168 -59 185 -153h-66c-11 60 -47 102 -119 102
c-86 0 -134 -73 -134 -171c0 -102 53 -172 132 -172c65 0 109 40 120 101h66c-21 -93 -84 -152 -192 -152c-111 0 -194 87 -194 221c0 139 85 224 202 224z" />
    <glyph glyph-name="dagger" unicode="&#x2020;" horiz-adv-x="550" 
d="M487 385l-183 5l8 -550h-73l7 550l-182 -5v57l182 -5l-8 253h74l-8 -253l183 5v-57z" />
    <glyph glyph-name="daggerdbl" unicode="&#x2021;" horiz-adv-x="550" 
d="M304 390v-251l183 5v-57l-183 5l8 -252h-73l7 252l-182 -5v57l182 -5v251l-182 -5v57l182 -5l-8 253h74l-8 -253l183 5v-57z" />
    <glyph glyph-name="degree" unicode="&#xb0;" horiz-adv-x="290" 
d="M145 704c66 0 114 -46 114 -112c0 -67 -48 -112 -114 -112c-67 0 -114 45 -114 112c0 66 47 112 114 112zM145 661c-39 0 -67 -28 -67 -69s28 -70 67 -70s66 29 66 70s-27 69 -66 69z" />
    <glyph glyph-name="paragraph" unicode="&#xb6;" horiz-adv-x="552" 
d="M477 690v-800h-45v757h-105v-757h-45v430h-23c-18 0 -39 0 -56 1c-102 6 -157 89 -157 184s55 178 157 184c17 1 38 1 56 1h218z" />
    <glyph glyph-name="registered" unicode="&#xae;" horiz-adv-x="513" 
d="M257 764c123 0 210 -87 210 -210s-87 -210 -210 -210s-210 87 -210 210s87 210 210 210zM257 381c100 0 171 72 171 173c0 102 -71 173 -171 173c-101 0 -172 -71 -172 -173c0 -101 71 -173 172 -173zM297 552c19 -5 27 -22 29 -43c4 -26 10 -43 15 -54h-44
c-4 12 -8 26 -10 48c-3 18 -13 25 -30 25h-30v-73h-39v204h63c8 0 16 0 25 -1c37 -4 63 -20 63 -56c0 -26 -18 -43 -42 -50zM227 562h23c9 0 14 0 20 1c17 3 27 13 27 31c0 20 -12 29 -26 32c-6 1 -10 1 -18 1h-26v-65z" />
    <glyph glyph-name="section" unicode="&#xa7;" horiz-adv-x="549" 
d="M519 251c0 -72 -48 -125 -112 -149c38 -30 57 -69 57 -124c0 -99 -88 -152 -191 -152c-109 0 -186 52 -205 171h65c21 -86 72 -122 144 -122c67 0 120 35 120 98c0 64 -34 105 -166 135c-102 25 -192 82 -192 180c0 80 48 129 114 151c-33 27 -55 64 -55 113
c0 95 73 152 173 152c115 0 177 -66 190 -162h-65c-16 73 -58 113 -125 113c-59 0 -107 -34 -107 -96c0 -68 58 -104 148 -126c134 -33 207 -86 207 -182zM345 137c61 8 108 48 108 107c0 68 -54 104 -166 133c-25 7 -51 15 -76 26c-54 -5 -105 -36 -105 -111
c0 -64 65 -109 149 -128c34 -7 64 -16 90 -27z" />
    <glyph glyph-name="trademark" unicode="&#x2122;" horiz-adv-x="531" 
d="M217 660v-33h-78v-171h-40v171h-77v33h195zM464 659v-203h-39l2 158l-54 -155h-41l-53 154l1 -157h-38v203h58l54 -166l53 166h57z" />
    <glyph glyph-name="acute" unicode="&#xb4;" horiz-adv-x="300" 
d="M166 580h-42l61 110h60z" />
    <glyph glyph-name="breve" unicode="&#x2d8;" horiz-adv-x="300" 
d="M208 690h40c0 -79 -31 -122 -98 -122c-68 0 -98 43 -98 122h40c1 -56 23 -80 58 -80s57 24 58 80z" />
    <glyph glyph-name="caron" unicode="&#x2c7;" horiz-adv-x="300" 
d="M240 690l-67 -110h-45l-66 110h49l40 -75l41 75h48z" />
    <glyph glyph-name="cedilla" unicode="&#xb8;" horiz-adv-x="300" 
d="M178 8l-29 -52c53 -6 84 -33 84 -81c0 -57 -51 -85 -115 -85c-20 0 -37 3 -51 9v36c15 -8 31 -11 53 -11c42 0 68 18 68 50c0 36 -28 56 -97 51l44 83h43z" />
    <glyph glyph-name="circumflex" unicode="&#x2c6;" horiz-adv-x="300" 
d="M191 580l-41 75l-40 -75h-48l66 110h45l67 -110h-49z" />
    <glyph glyph-name="dieresis" unicode="&#xa8;" horiz-adv-x="300" 
d="M89 667c20 0 37 -17 37 -36c0 -20 -17 -37 -37 -37c-19 0 -36 17 -36 37c0 19 17 36 36 36zM211 667c19 0 36 -17 36 -36c0 -20 -17 -37 -36 -37c-20 0 -37 17 -37 37c0 19 17 36 37 36z" />
    <glyph glyph-name="dotaccent" unicode="&#x2d9;" horiz-adv-x="300" 
d="M150 685c24 0 42 -18 42 -42c0 -23 -18 -42 -42 -42c-23 0 -42 19 -42 42c0 24 19 42 42 42z" />
    <glyph glyph-name="grave" unicode="`" horiz-adv-x="300" 
d="M175 580h-43l-79 110h61z" />
    <glyph glyph-name="hungarumlaut" unicode="&#x2dd;" horiz-adv-x="300" 
d="M112 580h-42l60 110h61zM226 580h-42l60 110h61z" />
    <glyph glyph-name="macron" unicode="&#xaf;" horiz-adv-x="300" 
d="M251 610h-202v40h202v-40z" />
    <glyph glyph-name="ogonek" unicode="&#x2db;" horiz-adv-x="300" 
d="M150 12l44 -12c-59 -13 -104 -67 -104 -131c0 -37 16 -51 45 -51c21 0 39 7 59 24v-39c-23 -18 -50 -26 -82 -26c-46 0 -82 19 -82 79c0 75 54 133 120 156z" />
    <glyph glyph-name="ring" unicode="&#x2da;" horiz-adv-x="300" 
d="M150 719c46 0 80 -31 80 -76c0 -44 -34 -75 -80 -75s-80 31 -80 75c0 45 34 76 80 76zM150 689c-24 0 -40 -19 -40 -46s16 -45 40 -45s40 18 40 45s-16 46 -40 46z" />
    <glyph glyph-name="tilde" unicode="&#x2dc;" horiz-adv-x="300" 
d="M97 671c18 0 33 -4 60 -13c24 -8 36 -11 45 -11c10 0 16 5 16 20h31c0 -45 -17 -60 -46 -60c-18 0 -33 4 -60 13c-24 8 -36 12 -45 12c-10 0 -16 -6 -16 -21h-31c0 45 17 60 46 60z" />
    <glyph glyph-name="uni0326" unicode="&#x326;" horiz-adv-x="0" 
d="M182 -60l-55 -127h-46l49 136h52v-9z" />
    </font>
</defs>
</svg>
